.
Авторизация | Регистрация
Хочешь лучшие торренты? Добавь свой email!
Добавить
» » Портной из Панамы / The Tailor of Panama (2001) HDRip | P скачать торрент бесплатно




    Портной из Панамы / The Tailor of Panama (2001) HDRip | P скачать торрент бесплатно

    Опубликовал: Админ | Дата: 3-03-2016, 14:56 | Просмотров: 91



    Детально о кино
    Русское название: Портной из Панамы
    Русское название в мировом прокате: The Tailor of Panama
    Создали в: 2001
    Категория жанра: триллер, драма
    Главный режиссер: Джон Бурмен/John Boorman

    Актеры
    Пирс Броснан, Джеффри Раш, Джейми Ли Кёртис, Леонор Варела, Брендан Глисон, Гарольд Пинтер, Катрин МакКормак, Дэниэл Рэдклифф, Лола Бурман, Дэвид Хеймен

    Сюжет фильма

    Секретный агент Британской разведки Энди Оснард подвержен двум неизменным страстям своей опасной профессии — одержимостью риском и чужими женами. На этот раз ему предстоит большая игра: он оказывается в центре политической интриги вокруг судьбы Панамского канала. Его орудие — престижный портной Гарри Перидел, чья элитная клиентура может дать разведчику бесценные сведения. Другой пламенной страсти — к женщине — в новом деле отводится не последняя роль.

    Снималось в: США, Ирландия
    Киностудия: Merlin Films, Columbia Pictures
    Время просмотра: 01: 49: 37
    Перевод текста: Профессиональный (многоголосый закадровый)
    Файл
    Кодек для видео: XviD/MP3
    Качество фильма: HDRip
    Информация о видео: MPEG4, XviD, 640x272 (2.35: 1), 23.976 fps, 813 Kbps (0.195 bit/pixel)
    Информация о звуке: MP3, 48.0 KHz, 2 ch, 128 Kbps, CBR
    Скриншоты
    Screenshots
    MediaInfo
    General
    Complete name : The.Tailor.of.Panama_HDRip.745.MVO.Rus.avi
    Format : AVI
    Format/Info : Audio Video Interleave
    File size : 745 MiB
    Duration : 1h 49mn
    Overall bit rate : 950 Kbps
    Writing application : VirtualDubMod 1.5.10.2 (build 2540/release)
    Writing library : VirtualDubMod build 2540/release
    Video
    ID : 0
    Format : MPEG-4 Visual
    Format profile : Advanced Simple@L5
    Format settings, BVOP : 1
    Format settings, QPel : No
    Format settings, GMC : No warppoints
    Format settings, Matrix : Default (MPEG)
    Codec ID : XVID
    Codec ID/Hint : XviD
    Duration : 1h 49mn
    Bit rate : 813 Kbps
    Width : 640 pixels
    Height : 272 pixels
    Display aspect ratio : 2.35: 1
    Frame rate : 23.976 fps
    Color space : YUV
    Chroma subsampling : 4: 2: 0
    Bit depth : 8 bits
    Scan type : Progressive
    Compression mode : Lossy
    Bits/(Pixel*Frame) : 0.195
    Stream size : 637 MiB (86%)
    Writing library : XviD 1.2.1 (UTC 2008-12-04)
    Audio
    ID : 1
    Format : MPEG Audio
    Format version : Version 1
    Format profile : Layer 3
    Codec ID : 55
    Codec ID/Hint : MP3
    Duration : 1h 49mn
    Bit rate mode : Constant
    Bit rate : 128 Kbps
    Channel(s) : 2 channels
    Sampling rate : 48.0 KHz
    Compression mode : Lossy
    Stream size : 100 MiB (13%)
    Alignment : Aligned on interleaves
    Interleave, duration : 42 ms (1.00 video frame)
    Interleave, preload duration : 504 ms
    Writing library : LAME3.98r
    Encoding settings : -m s -V 4 -q 2 -lowpass 17 -b 128


    Онлайн видео Портной из Панамы


    Размер скачиваемого торрента: 744.93 MB (781111296 Bytes)

    Портной из Панамы/The Tailor of Panama (2001) HDRip | P
    загрузка...
    Рейтинг →
     (голосов: 1, оценка 5/5, голосовать можно 1 раз )

    Другие торренты по теме:

  • Портной Из Панамы / The Tailor Of Panama (2001) BDRip 1080p от NNNB | P2, A скачать через торрент бесплатно


    • Комментарии (0):

      Информация

      Информация

        Посетители, находящиеся в группе Гости, не могут оставлять комментарии в данной новости.

        ↓ Меню



        ↓ Опрос

        А Вы добавили сайт в закладки?
        Да
        Не


        Top 10 за месяц (Фильмы)