.
Авторизация | Регистрация
Хочешь лучшие торренты? Добавь свой email!
Добавить
» » Тарас Шевченко (1951) DVDRip от New-Team скачать торрент бесплатно




    Тарас Шевченко (1951) DVDRip от New-Team скачать торрент бесплатно

    Опубликовал: Админ | Дата: 3-03-2016, 14:56 | Просмотров: 177



    Снималось в: СССР
    Создали в: Киевская к/ст
    Категория жанра: драма, биография, история
    Создали в: 1951
    Время просмотра: 01: 48: 00
    Перевод текста: Не требуется
    Субтитры подготовлены: нет
    Оригинальная аудиодорожка: русский
    Главный режиссер: Игорь Савченко

    Актеры

    Сергей Бондарчук, Владимир Честноков, Николай Тимофеев, Гнат (Игнатий) Юра, Иван Переверзев, Наталья Ужвий, Евгений Самойлов, Михаил Кузнецов, Алексей Консовский, Латиф Файзиев, Анатолий Чемодуров, Марк Бернес, Дмитрий Милютенко, Марианна Стриженова, Лаврентий Масоха, Павел Шпрингфельд, Михаил Трояновский, Михаил Названов, Александр Хвыля, Гарэн Жуковская, Михаил Высоцкий, Геннадий Юдин, Леонид Кмит, Александр Баранов, Константин Сорокин, Григорий Шпигель, Владимир Сошальский, Анна Кушниренко, Федор Гладков, Юрий Критенко...
    Полный список актёров
    Описание:
    Биографический фильм о жизни Тараса Шевченко.
    Лето 1841 года. Убит Лермонтов. Весть об этом доходит до скромной мансарды Петербургской Академии художеств, где живет и работает молодой художник и поэт Тарас Шевченко. Выросший в крестьянской украинской семье, познавший все тяготы крепостной жизни, Шевченко уже в годы учения четко и ясно определяет задачи подлинного искусства-служить интересам народа. Окончив Академию, Шевченко едет на Украину. Стихи Тараса проникнуты любовью к простым людям. Помещики-националисты, главари либерально Кирилло-Мефодиевского братства, пытаются приручить обезвредить прославленного поэта, но Шевченко навсегда сделал свой выбор-он на стороне народа, его защитник и певец. Гневное свободолюбивое творчество Тараса Шевченко известно всей России. Николай I ссылает поэта рядовым солдатом в далекий прикаспийский форт без права писать и рисовать. В трудные дни поэта поддерживает рядовой солдат-украинец Скобелев, польский революционер Сераковский, капитан Косарев, комендант крепости Усков. О его освобождении хлопочут Чернышевский и Добролюбов. И вот больной, постаревший Шевченко на свободе. Вместе с Чернышевским и Добролюбовым он мечтает о светлом будущем Родины, когда русский и украинский народы сбросят с себя цепи рабства.
    Тарас Шевченко - последняя работа одного из крупнейших советских кинорежиссеров И.А.Савченко. Он умер в самом разгаре съемок, в декабре 1950 года, фильм заканчивали его ассистенты и ученики А.Алов и В.Наумов.
    Первая роль в кино Николая Гринько (бунтарь).



    Источник: DVD5 R5
    Качество фильма видео: DVDRip
    Тип видео видео: AVI
    Информация о видео: 576x432 (4: 3), 25 fps, XviD ~ 834 kbps avg, 0.134 bit/pixel
    Информация о звуке: 48 kHz, MP3 2.0, 128 kbps
    Раздача от:
    MediaInfo

    Общее
    Полное имя : Taras.Shevchenko.1951.DVDRip-745_New-team_by_AVP_Studio.avi
    Формат : AVI
    Формат/Информация : Audio Video Interleave
    Размер файла : 751 Мбайт
    Продолжительность : 1 ч. 47 м.
    Общий поток : 972 Кбит/сек
    Программа кодирования : VirtualDubMod 1.5.10.3 | www.virtualdub-fr.org || (build 2550/release)
    Библиотека кодирования : VirtualDubMod build 2550/release
    Видео
    Идентификатор : 0
    Формат : MPEG-4 Visual
    Профиль формата : Advanced Simple@L5
    Параметр BVOP формата : 1
    Параметр QPel формата : Нет
    Параметр GMC формата : Без точки перехода
    Параметр матрицы формата : Выборочная
    Идентификатор кодека : XVID
    Идентификатор кодека/Подсказка : XviD
    Продолжительность : 1 ч. 47 м.
    Битрейт : 834 Кбит/сек
    Ширина : 576 пикселей
    Высота : 432 пикселя
    Соотношение сторон : 4: 3
    Частота кадров : 25, 000 кадров/сек
    Цветовое пространство : YUV
    Субдискретизация насыщенности : 4: 2: 0
    Битовая глубина : 8 бит
    Тип развёртки : Прогрессивная
    Метод сжатия : С потерями
    Бит/(Пиксели*Кадры) : 0.134
    Размер потока : 645 Мбайт (86%)
    Библиотека кодирования : XviD 73
    Аудио
    Идентификатор : 1
    Формат : MPEG Audio
    Версия формата : Version 1
    Профиль формата : Layer 3
    Идентификатор кодека : 55
    Идентификатор кодека/Подсказка : MP3
    Продолжительность : 1 ч. 47 м.
    Вид битрейта : Постоянный
    Битрейт : 128 Кбит/сек
    Каналы : 2 канала
    Частота : 48, 0 КГц
    Метод сжатия : С потерями
    Размер потока : 98, 9 Мбайт (13%)
    Выравнивание : Соединение по промежуткам
    Продолжительность промежутка : 40 мс. (1, 00 видеокадр)
    Время предзагрузки промежутка : 504 мс.
    Библиотека кодирования : LAME3.99r
    Залил: AVPStudio

    Онлайн видео Тарас Шевченко (1951) DVDRip от New


    Размер скачиваемого торрента: 750.91 MB (787388416 Bytes)


    Тарас Шевченко (1951) DVDRip от New-Team
    загрузка...
    Рейтинг →
     (голосов: 1, оценка 3/5, голосовать можно 1 раз )

    Другие торренты по теме:

  • Тарас Шевченко - Кобзарь (2013) MP3


    • Комментарии (0):

      Информация

      Информация

        Посетители, находящиеся в группе Гости, не могут оставлять комментарии в данной новости.

        ↓ Меню



        ↓ Опрос

        А Вы добавили сайт в закладки?
        Да
        Не


        Top 10 за месяц (Фильмы)