.
Авторизация | Регистрация
Хочешь лучшие торренты? Добавь свой email!
Добавить
» » Прогулка по Миссисипи / Mississippi Grind (2015) HDRip-AVC | L скачать торрент бесплатно




    Прогулка по Миссисипи / Mississippi Grind (2015) HDRip-AVC | L скачать торрент бесплатно

    Опубликовал: Админ | Дата: 20-02-2016, 05:01 | Просмотров: 236



    Детально о кино
    Русское название: Прогулка по Миссисипи
    Русское название в мировом прокате: Mississippi Grind
    Создали в: 2015
    Категория жанра: драма
    Главный режиссер: Анна Боден, Райан Флек

    Актеры
    Бен Мендельсон, Райан Рейнольдс, Ивонн Ландри, Энтони Ховард, Джэйсон Уорнер Смит, Керри Кехилл, Джейн МакНейлл, Jason Shaffette, П.Дж. Маршалл, Стефани Онор

    Сюжет фильма

    Фильм расскажет о стареющем картежнике, который вместе с молодым коллегой путешествует по югу Америки.

    Снималось в: США/Electric City Entertainment, Gowanus Projections, Story Ink, Sycamore Pictures
    Время просмотра: 01: 49: 10
    Тип перевода: Любительский многоголосый CCK Media Production
    Файл
    Качество фильма: HDRip-AVC
    Информация о видео: High@L4.1, ~1695 Кбит/с, 1024x428
    Информация о звуке: AC3, 2 ch, 192 Кбит/с
    Субтитры: Нет
    M/I
    General
    Unique ID : 35230484744394811836432977394683701569 (0x1A81250163B098DAB61CD2F56F556941)
    Complete name : F: Progulka.po.Missisipi.(2015).MVO.HDRIP_AVC.-=DoMiNo=-.mkv
    Format : Matroska
    Format version : Version 4/Version 2
    File size : 1.47 GiB
    Duration : 1h 49mn
    Overall bit rate : 1 925 Kbps
    Movie name : Прогулка по Миссисипи
    Writing application : XviD4PSP 7.0.223
    Writing library : Lavf56.40.101/Lavf56.40.101
    Cover : Yes
    Attachments : cover.jpg
    ACTORS : Бен Мендельсон, Райан Рейнольдс, Ивонн Ландри, Энтони Ховард, Джэйсон Уорнер Смит, Керри Кехилл, Джейн МакНейлл, Джейсон Шаффетт, П.Дж. Маршалл, Стефани Онор, показать всех
    COUNTRY : США
    DATE : 2014
    DIRECTOR : Анна Боден, Райан Флек
    ENCODING_INFO : MATROSKA, WEBM MKV/H264 X264 CRF 18.0 Custom/AC3 AC3 CBR 192kbps
    GENRE : драма
    IMDB_RATING : 6.40
    ITUNEXTC : mpaa|R|400|
    ORIGINAL_TITLE : Mississippi Grind
    PRODUCER : Бен Нирн, Джэми Патрикоф, Том Райс
    RATING : 5.912
    SYNOPSIS : Фильм расскажет о стареющем картежнике, который вместе с молодым коллегой путешествует по югу Америки.
    WRITER : Анна Боден, Райан Флек
    Video
    ID : 1
    Format : AVC
    Format/Info : Advanced Video Codec
    Format profile : High@L4.1
    Format settings, CABAC : Yes
    Format settings, ReFrames : 12 frames
    Codec ID : V_MPEG4/ISO/AVC
    Duration : 1h 49mn
    Bit rate : 1 695 Kbps
    Width : 1 024 pixels
    Height : 428 pixels
    Display aspect ratio : 2.40: 1
    Frame rate mode : Constant
    Frame rate : 23.976 (24000/1001) fps
    Color space : YUV
    Chroma subsampling : 4: 2: 0
    Bit depth : 8 bits
    Scan type : Progressive
    Bits/(Pixel*Frame) : 0.161
    Stream size : 1.29 GiB (88%)
    Writing library : x264 core 148 r2665M a01e339
    Encoding settings : cabac=1/ref=12/deblock=1: -3: -3/analyse=0x3: 0x133/me=umh/subme=10/psy=1/psy_rd=1.00: 0.10/mixed_ref=1/me_range=32/chroma_me=1/trellis=2/8x8dct=1/cqm=0/deadzone=21, 11/fast_pskip=0/chroma_qp_offset=-3/threads=5/lookahead_threads=1/sliced_threads=0/nr=0/decimate=1/interlaced=0/bluray_compat=0/constrained_intra=0/bframes=11/b_pyramid=2/b_adapt=2/b_bias=0/direct=1/weightb=1/open_gop=0/weightp=2/keyint=230/keyint_min=23/scenecut=40/intra_refresh=0/rc_lookahead=60/rc=crf/mbtree=1/crf=18.0/qcomp=0.60/qpmin=18/qpmax=69/qpstep=4/ip_ratio=1.40/aq=1: 1.00
    Language : English
    Default : Yes
    Forced : No
    DURATION : 01: 49: 10.586000000
    Audio
    ID : 2
    Format : AC-3
    Format/Info : Audio Coding 3
    Mode extension : CM (complete main)
    Format settings, Endianness : Big
    Codec ID : A_AC3
    Duration : 1h 49mn
    Bit rate mode : Constant
    Bit rate : 192 Kbps
    Channel(s) : 2 channels
    Channel positions : Front: L R
    Sampling rate : 48.0 KHz
    Frame rate : 31.250 fps (1536 spf)
    Bit depth : 32 bits
    Compression mode : Lossy
    Delay relative to video : 27ms
    Stream size : 150 MiB (10%)
    Language : Russian
    Default : Yes
    Forced : No
    DURATION : 01: 49: 10.587000000
    Menu
    00: 00: 00.000 : : Chapter 1
    00: 07: 20.273 : : Chapter 2
    00: 13: 15.837 : : Chapter 3
    00: 20: 29.645 : : Chapter 4
    00: 27: 44.997 : : Chapter 5
    00: 34: 07.671 : : Chapter 6
    00: 42: 13.531 : : Chapter 7
    00: 50: 30.110 : : Chapter 8
    00: 58: 45.480 : : Chapter 9
    01: 07: 51.276 : : Chapter 10
    01: 12: 44.610 : : Chapter 11
    01: 16: 40.054 : : Chapter 12
    01: 23: 14.031 : : Chapter 13
    01: 27: 44.718 : : Chapter 14
    01: 32: 11.776 : : Chapter 15
    01: 43: 26.575 : : Chapter 16



    Онлайн видео Прогулка по Миссисипи


    Размер скачиваемого торрента: 1.47 GB (1576196906 Bytes)

    Прогулка по Миссисипи/Mississippi Grind (2015) HDRip-AVC | L
    загрузка...
    Рейтинг →
     (голосов: 1, оценка 3/5, голосовать можно 1 раз )

    Другие торренты по теме:

  • Прогулка по Миссисипи / Mississippi Grind (2015) WEB-DL 1080p | L1
  • Прогулка по Миссисипи / Mississippi Grind (2015) HDRip | L1
  • Прогулка по Миссисипи / Mississippi Grind (2015) BDRip 720p от Scarabey | L


    • Комментарии (0):

      Информация

      Информация

        Посетители, находящиеся в группе Гости, не могут оставлять комментарии в данной новости.

        ↓ Меню



        ↓ Опрос

        А Вы добавили сайт в закладки?
        Да
        Не


        Top 10 за месяц (Фильмы)