.
Авторизация | Регистрация
Хочешь лучшие торренты? Добавь свой email!
Добавить
» » Крид: Наследие Рокки / Creed (2015) BDRemux | IDEAFILM скачать торрент бесплатно




    Крид: Наследие Рокки / Creed (2015) BDRemux | IDEAFILM скачать торрент бесплатно

    Опубликовал: Админ | Дата: 17-02-2016, 05:00 | Просмотров: 125



    Создали в: США/Chartoff-Winkler Productions, Metro-Goldwyn-Mayer (MGM), New Line Cinema
    Категория жанра: драма, спорт
    Главный режиссер: Райан Куглер
    Продюсер: Роберт Чартофф, Уильям Чартофф, Сильвестр Сталлоне
    Актеры: Майкл Б. Джордан, Сильвестр Сталлоне, Тесса Томпсон, Филисия Рашад, Андре Уорд, Тони Белью, Ричи Костер, Джейкоб ’Стич’ Дюран, Грэм МакТавиш, Вуд Харрис, Брайан Энтони Уилсон, Джои Эй, Кэш Гойнс, Кевин Кинг Темплтон, Лерой Уилсон мл., Маурицио Овейлл, Марк Смит, Джосу Ривера, Ганс Марреро, Мэнни Айала

    Описание фильма

    В центре внимания сын Аполло Крида — первого серьезного соперника Рокки Бальбоа на ринге, впоследствии ставшего лучшим другом героя. Талант отца в какой-то момент проявляется и в Криде-младшем, и юноша отправляется на поиски наставника, коим для него в итоге становится постаревший Рокки, тоже не слишком жаждущий возвращаться к старым делам. Даже в качестве тренера.

    Возраст: 16+(зрителям, достигшим 16 лет)
    Рейтинг MPAA: PG-13(детям до 13 лет просмотр нежелателен)
    Дата мировой премьеры: 25 ноября 2015
    Дата российской премьеры: 14 января 2016, Каро-Премьер
    Время просмотра: 02: 13: 49
    Качество фильма: BDRemux
    Перевод текста: Профессиональный (многоголосый, закадровый) (IDEAFILM)
    Вид субтитров: Вшитые, отключаемые
    Язык субтитров: Английский
    Информация о видео: AVC/H.264, 1920x1080p, (16: 9), ~24.9 Mbps, 23.976 fps
    Информация о звуке: AC3, 6 ch, 384 kbps - Русский
    Информация о звуке: DTS, 6 ch, 1509 kbps - Английский
    Информация о звуке: DTS-HD MA, 8 ch, 4807 kbps - Английский
    MediaInfo:

    General
    Unique ID : 241800949803727781828285572203040104839 (0xB5E92B4253D77189983A08B09C7E6187)
    Complete name : D: Creed.2015.BluRay.1080p.AVC.DTS-HD.MA7.1-MTeam.mkv
    Format : Matroska
    Format version : Version 4/Version 2
    File size : 29.3 GiB
    Duration : 2h 13mn
    Overall bit rate mode : Variable
    Overall bit rate : 31.5 Mbps
    Encoded date : UTC 2016-02-12 17: 49: 33
    Writing application : mkvmerge v8.8.0 (;Wind at my back;) 64bit
    Writing library : libebml v1.3.3 + libmatroska v1.4.4
    Video
    ID : 1
    Format : AVC
    Format/Info : Advanced Video Codec
    Format profile : High@L4.1
    Format settings, CABAC : Yes
    Format settings, ReFrames : 4 frames
    Codec ID : V_MPEG4/ISO/AVC
    Duration : 2h 13mn
    Bit rate mode : Variable
    Bit rate : 24.8 Mbps
    Maximum bit rate : 32.0 Mbps
    Width : 1 920 pixels
    Height : 1 080 pixels
    Display aspect ratio : 16: 9
    Frame rate mode : Constant
    Frame rate : 23.976 (24000/1001) fps
    Color space : YUV
    Chroma subsampling : 4: 2: 0
    Bit depth : 8 bits
    Scan type : Progressive
    Bits/(Pixel*Frame) : 0.499
    Stream size : 23.1 GiB (79%)
    Default : Yes
    Forced : No
    Audio #1
    ID : 2
    Format : AC-3
    Format/Info : Audio Coding 3
    Mode extension : CM (complete main)
    Format settings, Endianness : Big
    Codec ID : A_AC3
    Duration : 2h 13mn
    Bit rate mode : Constant
    Bit rate : 384 Kbps
    Channel(s) : 6 channels
    Channel positions : Front: L C R, Side: L R, LFE
    Sampling rate : 48.0 KHz
    Frame rate : 31.250 fps (1536 spf)
    Compression mode : Lossy
    Stream size : 366 MiB (1%)
    Language : Russian
    Default : Yes
    Forced : Yes
    Audio #2
    ID : 3
    Format : DTS
    Format/Info : Digital Theater Systems
    Format profile : MA/Core
    Mode : 16
    Format settings, Endianness : Big
    Codec ID : A_DTS
    Duration : 2h 13mn
    Bit rate mode : Variable/Constant
    Bit rate : 4 807 Kbps/1 509 Kbps
    Channel(s) : 8 channels/6 channels
    Channel positions : Front: L C R, Side: L R, Back: L R, LFE/Front: L C R, Side: L R, LFE
    Sampling rate : 48.0 KHz
    Frame rate : 93.750 fps (512 spf)
    Bit depth : 24 bits
    Compression mode : Lossless/Lossy
    Stream size : 4.47 GiB (15%)
    Language : English
    Default : No
    Forced : No
    Audio #3
    ID : 4
    Format : DTS
    Format/Info : Digital Theater Systems
    Mode : 16
    Format settings, Endianness : Big
    Codec ID : A_DTS
    Duration : 2h 13mn
    Bit rate mode : Constant
    Bit rate : 1 509 Kbps
    Channel(s) : 6 channels
    Channel positions : Front: L C R, Side: L R, LFE
    Sampling rate : 48.0 KHz
    Frame rate : 93.750 fps (512 spf)
    Bit depth : 24 bits
    Compression mode : Lossy
    Stream size : 1.40 GiB (5%)
    Language : English
    Default : No
    Forced : No
    Text
    ID : 5
    Format : VobSub
    Muxing mode : zlib
    Codec ID : S_VOBSUB
    Codec ID/Info : Picture based subtitle format used on DVDs
    Duration : 2h 11mn
    Bit rate : 6 863 bps
    Count of elements : 2209
    Stream size : 6.48 MiB (0%)
    Language : English
    Default : No
    Forced : No
    Menu
    00: 00: 00.000 : en: 00: 00: 00.000
    00: 09: 14.387 : en: 00: 09: 14.387
    00: 22: 06.742 : en: 00: 22: 06.742
    00: 31: 31.932 : en: 00: 31: 31.932
    00: 41: 34.659 : en: 00: 41: 34.659
    00: 52: 18.010 : en: 00: 52: 18.010
    01: 01: 32.063 : en: 01: 01: 32.063
    01: 09: 13.941 : en: 01: 09: 13.941
    01: 19: 00.986 : en: 01: 19: 00.986
    01: 25: 13.650 : en: 01: 25: 13.650
    01: 32: 27.792 : en: 01: 32: 27.792
    01: 41: 16.445 : en: 01: 41: 16.445
    01: 50: 14.441 : en: 01: 50: 14.441
    02: 01: 07.719 : en: 02: 01: 07.719
    02: 06: 34.962 : en: 02: 06: 34.962

    Скриншоты:

    Время раздачи: 24/7

    Онлайн видео Крид: Наследие Рокки


    Размер скачиваемого торрента: 29.31 GB (31471560194 Bytes)

    Крид: Наследие Рокки/Creed (2015) BDRemux | IDEAFILM
    загрузка...
    Рейтинг →
     (голосов: 1, оценка 4/5, голосовать можно 1 раз )

    Другие торренты по теме:

  • Крид: Наследие Рокки / Creed (2015) DVDScr | Звук с CamRip
  • Крид: Наследие Рокки / Creed (2015) HDRip-AVC | P | IDEAFILM
  • Крид: Наследие Рокки / Creed (2015) BDRip 720p | iTunes
  • Крид: Наследие Рокки / Creed (2015) BDRip 720p от Scarabey | iTunes, P
  • Крид: Наследие Рокки / Creed (2015) BDRip-AVC от New-Team | Лицензия
  • Крид: Наследие Рокки / Creed (2015) BDRip 1080p от ExKinoRay | Лицензия
  • Крид: Наследие Рокки / Creed (2015) HDRip от Scarabey | Лицензия
  • Крид: Наследие Рокки / Creed (2015)


    • Комментарии (0):

      Информация

      Информация

        Посетители, находящиеся в группе Гости, не могут оставлять комментарии в данной новости.

        ↓ Меню



        ↓ Опрос

        А Вы добавили сайт в закладки?
        Да
        Не


        Top 10 за месяц (Фильмы)