.
Авторизация | Регистрация
Хочешь лучшие торренты? Добавь свой email!
Добавить
» » Анна Каренина (1953) DVDRip от New-Team скачать торрент бесплатно




    Анна Каренина (1953) DVDRip от New-Team скачать торрент бесплатно

    Опубликовал: Админ | Дата: 16-02-2016, 17:40 | Просмотров: 105



    Снималось в: СССР
    Создали в: Мосфильм
    Категория жанра: драма
    Создали в: 1953
    Время просмотра: 02: 39: 09 (01: 21: 34 + 01: 17: 35)
    Перевод текста: Не требуется
    Субтитры подготовлены: нет
    Оригинальная аудиодорожка: русский
    Главный режиссер: Татьяна Лукашевич

    Актеры

    Алла Тарасова, Николай Соснин, Павел Массальский, Виктор Станицын, Евдокия Алеева, Ангелина Степанова, Мария Дурасова, Владимир Попов, Алексей Закалинский, Нина Сластенина-Шухмина, Григорий Конский, Ирина Гошева, Борис Петкер, Евгения Хованская, Софья Пилявская, Нина Михаловская, Софья Гаррель, Валерия Дементьева, Анна Коломийцева (Блинникова), Галина Шостко, Алексей Жильцов, Николай Свободин, Владимир Кириллин, Владимир Дамский, Василий Макаров...
    Полный список актёров
    Описание:
    Телефильм-спектакль Московского Художественного театра в постановке В.Немировича-Данченко и В.Сахновского. Максимально полно воспроизводит основные сюжетные перипетии и образы театральной версии романа.



    Источник: DVD9 R5
    Качество фильма видео: DVDRip
    Тип видео видео: AVI
    Информация о видео: 688x512 (4: 3), 25 fps, XviD ~ 1756 kbps avg, 0.199 bit/pixel
    Информация о звуке: 48 kHz, Dolby Digital AC3 2.0, 192 kbps
    Раздача от:
    MediaInfo

    Общее
    Полное имя : Anna.Karenina.1953.DVDRip_New-team_by_AVP_Studio.avi
    Формат : AVI
    Формат/Информация : Audio Video Interleave
    Размер файла : 1, 12 Гбайт
    Продолжительность : 1 ч. 21 м.
    Общий поток : 1958 Кбит/сек
    Программа кодирования : VirtualDubMod 1.5.10.3 | www.virtualdub-fr.org || (build 2550/release)
    Библиотека кодирования : VirtualDubMod build 2550/release
    Видео
    Идентификатор : 0
    Формат : MPEG-4 Visual
    Профиль формата : Advanced Simple@L5
    Параметр BVOP формата : 1
    Параметр QPel формата : Нет
    Параметр GMC формата : Без точки перехода
    Параметр матрицы формата : Выборочная
    Идентификатор кодека : XVID
    Идентификатор кодека/Подсказка : XviD
    Продолжительность : 1 ч. 21 м.
    Битрейт : 1756 Кбит/сек
    Ширина : 688 пикселей
    Высота : 512 пикселей
    Соотношение сторон : 4: 3
    Частота кадров : 25, 000 кадров/сек
    Цветовое пространство : YUV
    Субдискретизация насыщенности : 4: 2: 0
    Битовая глубина : 8 бит
    Тип развёртки : Прогрессивная
    Метод сжатия : С потерями
    Бит/(Пиксели*Кадры) : 0.199
    Размер потока : 1, 00 Гбайт (90%)
    Библиотека кодирования : XviD 1.2.1 (UTC 2008-12-04)
    Аудио
    Идентификатор : 1
    Формат : AC-3
    Формат/Информация : Audio Coding 3
    Расширение режима : CM (complete main)
    Параметр Endianness формата : Big
    Идентификатор кодека : 2000
    Продолжительность : 1 ч. 21 м.
    Вид битрейта : Постоянный
    Битрейт : 192 Кбит/сек
    Каналы : 2 канала
    Расположение каналов : Front: L R
    Частота : 48, 0 КГц
    Частота кадров : 31, 250 кадров/сек (1536 spf)
    Метод сжатия : С потерями
    Размер потока : 112 Мбайт (10%)
    Выравнивание : Разделение по промежуткам
    Продолжительность промежутка : 40 мс. (1, 00 видеокадр)
    Время предзагрузки промежутка : 500 мс

    Скриншоты



    Залил: AVPStudio

    Онлайн видео Анна Каренина (1953) DVDRip от New


    Размер скачиваемого торрента: 2.18 GB (2336237568 Bytes)

    Анна Каренина (1953) DVDRip от New-Team
    загрузка...
    Рейтинг →
     (голосов: 1, оценка 5/5, голосовать можно 1 раз )

    Другие торренты по теме:

  • Анна Каренина / Anna Karenina (2012) DVDScr | Звук с TS
  • OST - Анна Каренина / Anna Karenina Soundtrack (2012) MP3
  • Анна Каренина (2009) DVB
  • Анна Каренина (2009) HDTV 1080i
  • Анна Каренина (2009) SATRip
  • Анна Каренина (2009) HDTVRip
  • Анна Каренина (2009) HDTVRip от Files-x
  • Анна Каренина (2009) HDTVRip от Getty


    • Комментарии (0):

      Информация

      Информация

        Посетители, находящиеся в группе Гости, не могут оставлять комментарии в данной новости.

        ↓ Меню



        ↓ Опрос

        А Вы добавили сайт в закладки?
        Да
        Не


        Top 10 за месяц (Фильмы)