.
Авторизация | Регистрация
Хочешь лучшие торренты? Добавь свой email!
Добавить
» » Великий воин Албании Скандербег (1953) SATRip от New-Team скачать торрент бесплатно




    Великий воин Албании Скандербег (1953) SATRip от New-Team скачать торрент бесплатно

    Опубликовал: Админ | Дата: 11-02-2016, 05:01 | Просмотров: 87



    Снималось в: СССР
    Создали в: Shqip?ria e Re, Мосфильм
    Категория жанра: боевик, драма, история
    Создали в: 1953
    Время просмотра: 01: 53: 25
    Перевод текста: Не требуется
    Субтитры подготовлены: нет
    Оригинальная аудиодорожка: русский
    Главный режиссер: Сергей Юткевич

    Актеры

    Акакий Хорава, Бэса Имами, Адивие Алибали, Семён Соколовский, Верико Анджапаридзе, Георгий Черноволенко, Наим Фрашери, Борис Тенин, Николай Бубнов, Олег Жаков, Георгий Румянцев, Ваграм Папазян, Михаль Попи, Александр Вертинский, Николай Левкоев, Владимир Соловьёв, Серго Закариадзе...
    Полный список актёров
    Описание:
    Эпизоды освободительной борьбы албанского народа во главе с Георгием Кастриотом (Скандербегом) против турецких завоевателей. XV век.
    Призы МКФ в Канне—54: Международная премия (В знак признания успехов национальных кинематографий) фильму, особо отмечена режиссура (С.Юткевич), мужская роль (А.Хорава) и Специальная премия Высшей технической комиссии за совершенные технические качества съемок (Е.Андриканис).



    Источник: DVB
    Качество фильма видео: SATRip
    Тип видео видео: AVI
    Информация о видео: 640x480 (4: 3), 25 fps, XviD ~ 1237 kbps avg, 0.161 bit/pixel
    Информация о звуке: 48 kHz, MP3 2.0, 128 kbps
    Раздача от:
    MediaInfo

    Общее
    Полное имя : Velikiy.voin.Albanii.Skanderbeg.1953.SATRip-1, 09_New-team_by_AVP_Studio.avi
    Формат : AVI
    Формат/Информация : Audio Video Interleave
    Размер файла : 1, 09 Гбайт
    Продолжительность : 1 ч. 53 м.
    Общий поток : 1374 Кбит/сек
    Программа кодирования : VirtualDubMod 1.5.10.3 | www.virtualdub-fr.org || (build 2550/release)
    Библиотека кодирования : VirtualDubMod build 2550/release
    Видео
    Идентификатор : 0
    Формат : MPEG-4 Visual
    Профиль формата : Advanced Simple@L5
    Параметр BVOP формата : 1
    Параметр QPel формата : Нет
    Параметр GMC формата : Без точки перехода
    Параметр матрицы формата : Выборочная
    Идентификатор кодека : XVID
    Идентификатор кодека/Подсказка : XviD
    Продолжительность : 1 ч. 53 м.
    Битрейт : 1237 Кбит/сек
    Ширина : 640 пикселей
    Высота : 480 пикселей
    Соотношение сторон : 4: 3
    Частота кадров : 25, 000 кадров/сек
    Цветовое пространство : YUV
    Субдискретизация насыщенности : 4: 2: 0
    Битовая глубина : 8 бит
    Тип развёртки : Прогрессивная
    Метод сжатия : С потерями
    Бит/(Пиксели*Кадры) : 0.161
    Размер потока : 1003 Мбайт (90%)
    Библиотека кодирования : XviD 1.2.1 (UTC 2008-12-04)
    Аудио
    Идентификатор : 1
    Формат : MPEG Audio
    Версия формата : Version 1
    Профиль формата : Layer 3
    Идентификатор кодека : 55
    Идентификатор кодека/Подсказка : MP3
    Продолжительность : 1 ч. 53 м.
    Вид битрейта : Постоянный
    Битрейт : 128 Кбит/сек
    Каналы : 2 канала
    Частота : 48, 0 КГц
    Метод сжатия : С потерями
    Размер потока : 104 Мбайт (9%)
    Выравнивание : Соединение по промежуткам
    Продолжительность промежутка : 40 мс. (1, 00 видеокадр)
    Время предзагрузки промежутка : 504 мс.
    Библиотека кодирования : LAME3.99r
    Залил: AVPStudio

    Онлайн видео Великий воин Албании Скандербег (1953) SATRip от New


    Размер скачиваемого торрента: 1.09 GB (1169102848 Bytes)


    Великий воин Албании Скандербег (1953) SATRip от New-Team
    загрузка...
    Рейтинг →
     (голосов: 1, оценка 3/5, голосовать можно 1 раз )

    Другие торренты по теме:

  • Великий воин Магадиш / Magadheera (2009) BDRip от -=HD-NET=- скачать через торрент бесплатно
  • Великий воин Албании Скандербег / 1953 / РУ / DVB
  • Великий воин Албании Скандербег (1953) SATRip от New-Team


    • Комментарии (0):

      Информация

      Информация

        Посетители, находящиеся в группе Гости, не могут оставлять комментарии в данной новости.

        ↓ Меню



        ↓ Опрос

        А Вы добавили сайт в закладки?
        Да
        Не


        Top 10 за месяц (Фильмы)