.
Авторизация | Регистрация
Хочешь лучшие торренты? Добавь свой email!
Добавить
» » Колония / Colony (2016) WEB-DL 720p | OMSKBIRD records скачать торрент бесплатно




    Колония / Colony (2016) WEB-DL 720p | OMSKBIRD records скачать торрент бесплатно

    Опубликовал: Админ | Дата: 7-02-2016, 05:01 | Просмотров: 100



    Детально о кино
    Русское название: Колония
    Русское название в мировом прокате: Colony
    Создали в: 2016
    Категория жанра: Фантастика
    Главный режиссер: Хуан Хосе Кампанелла

    Актеры
    Джош Холлоуэй, Сара Уэйн Кэллис, Аэдин Минкс, Чарльз Бэйкер, Тристен Бэнкстон, Том Бейер, Хилти Бауэн, Джонни Канниццаро, Джастин Чу-Кэри, Ной Крафт, Изабелла Крамп, Купер Дж. Фридман и др.

    Сюжет фильма

    Действие разворачивается в недалёком будущем в Лос-Анджелесе, оккупированном злобными пришельцами. Пока захватчики не стремятся к полному уничтожению землян, но устанавливают над нами тотальный контроль. В изменившемся мире человеческая раса делится на два лагеря. Одни подчиняются и приспосабливаются жить под гнётом новой власти. Другие уходят в партизаны, чтобы сопротивляться колонистам.
    В непростой ситуации оказывается главный герой, Уилл Боуман (Джош Холлоуэй), ранее служивший в ФБР.

    Снималось в: США
    Время просмотра: ~ 00: 49: 52 серия
    Перевод текста: Любительский (многоголосый закадровый) |OMSKBIRD records
    Файл
    Кодек для видео: MPEG-4 AVC/H.264
    Качество фильма: WEB-DL 720p
    Информация о видео: AVC, 1280x720 (16: 9), 23.976 fps, ~4010 kbps
    Информация о звуке:
    Информация о звуке rus: AC3, 48 kHz, 6 ch, 384 kbps |OMSKBIRD records
    Информация о звуке eng: AC3, 48 kHz, 6 ch, 384 kbps | original
    Субтитры: Русские, английские
    Семпл
    Релиз:

    Релиз-группа:
    Релиз: Grandfather61 (Skyns61)
    Перевод текста: Никита Коваль
    Роли озвучивали: Анна Тух, Павел Ярощик, Алексей Гнеушев и Владислав Данилов
    Информация о звукеорежиссер: Павел Квентов
    Постер: Ксения Просветова
    Монтаж, работа со звуком : Skyns61
    Список серий:

    01. Pilot
    02. Brave New World - О дивный новый мир
    03. 98 секунд - 98 Seconds
    04. Blind Spot
    MediaInfo:

    Общее
    Уникальный идентификатор : 225729105451546008901346264475631279839 (0xA9D1D8276138CE6B806A41EC2E4ADEDF)
    Полное имя : G: FilmsColony.S01.720p.OmskBirdColony.S01E01.720p.WEB-DL.Rus.Eng.OmskBird.DD5.1.mkv
    Формат : Matroska
    Версия формата : Version 4/Version 2
    Размер файла : 1, 66 Гбайт
    Продолжительность : 49 м.
    Общий поток : 4781 Кбит/сек
    Дата кодирования : UTC 2016-01-23 16: 24: 31
    Программа кодирования : mkvmerge v8.6.1 (;Flying;) 64bit
    Библиотека кодирования : libebml v1.3.3 + libmatroska v1.4.4
    Видео
    Идентификатор : 1
    Формат : AVC
    Формат/Информация : Advanced Video Codec
    Профиль формата : High@L3.1
    Параметр CABAC формата : Нет
    Параметр ReFrames формата : 2 кадра
    Идентификатор кодека : V_MPEG4/ISO/AVC
    Продолжительность : 49 м.
    Битрейт : 4010 Кбит/сек
    Ширина : 1280 пикселей
    Высота : 720 пикселей
    Соотношение сторон : 16: 9
    Режим частоты кадров : Постоянный
    Частота кадров : 23, 976 (24000/1001) кадра/сек
    Цветовое пространство : YUV
    Субдискретизация насыщенности : 4: 2: 0
    Битовая глубина : 8 бит
    Тип развёртки : Прогрессивная
    Бит/(Пиксели*Кадры) : 0.181
    Размер потока : 1, 39 Гбайт (84%)
    Язык : English
    Default : Да
    Forced : Нет
    colour_range : Limited
    Основные цвета : BT.709
    Характеристики трансфера : BT.709
    Коэффициенты матрицы : BT.709
    Аудио #1
    Идентификатор : 2
    Формат : AC-3
    Формат/Информация : Audio Coding 3
    Расширение режима : CM (complete main)
    Параметр Endianness формата : Big
    Идентификатор кодека : A_AC3
    Продолжительность : 49 м.
    Вид битрейта : Постоянный
    Битрейт : 384 Кбит/сек
    Каналы : 6 каналов
    Расположение каналов : Front: L C R, Side: L R, LFE
    Частота : 48, 0 КГц
    Частота кадров : 31, 250 кадров/сек (1536 spf)
    Метод сжатия : С потерями
    Размер потока : 136 Мбайт (8%)
    Заголовок : OmskBird 5.1
    Язык : Russian
    Default : Да
    Forced : Нет
    Аудио #2
    Идентификатор : 3
    Формат : AC-3
    Формат/Информация : Audio Coding 3
    Расширение режима : CM (complete main)
    Параметр Endianness формата : Big
    Идентификатор кодека : A_AC3
    Продолжительность : 49 м.
    Вид битрейта : Постоянный
    Битрейт : 384 Кбит/сек
    Каналы : 6 каналов
    Расположение каналов : Front: L C R, Side: L R, LFE
    Частота : 48, 0 КГц
    Частота кадров : 31, 250 кадров/сек (1536 spf)
    Метод сжатия : С потерями
    Размер потока : 136 Мбайт (8%)
    Заголовок : original 5.1
    Язык : English
    Default : Нет
    Forced : Нет
    Текст #1
    Идентификатор : 4
    Формат : UTF-8
    Идентификатор кодека : S_TEXT/UTF8
    Идентификатор кодека/Информация : UTF-8 Plain Text
    Продолжительность : 48 м.
    Битрейт : 69 бит/сек
    Count of elements : 618
    Размер потока : 25, 0 Кбайт (0%)
    Заголовок : rus (OmskBird)
    Язык : Russian
    Default : Нет
    Forced : Нет
    Текст #2
    Идентификатор : 5
    Формат : UTF-8
    Идентификатор кодека : S_TEXT/UTF8
    Идентификатор кодека/Информация : UTF-8 Plain Text
    Продолжительность : 49 м.
    Битрейт : 54 бит/сек
    Count of elements : 717
    Размер потока : 19, 5 Кбайт (0%)
    Заголовок : CC
    Язык : English
    Default : Нет
    Forced : Нет
    Скриншоты


    Внимание! Раздача ведётся путём добавления новых серий.

    color=brown
    Внимание! Раздача ведётся путём добавления новых серий; при каждом добавлении создётся новый торрент. Чтобы начать докачку новой серии, пользователям необходимо сделать следующее:
    Остановить скачивание.
    Удалить старый торрент у себя из клиента (старые серии удалять не надо).
    Скачать новый торрент и запустить его у себя в клиенте вместо старого, при этом указать клиенту путь в старую папку куда и должно происходить скачивание новых серий.
    Ваш клиент при этом должен произвести хеширование (проверку) старой папки (если не производит сам - помогите ему сделать это), и будет докачивать только те серии которых у вас ещё нет. Старые серии при этом не удаляются, а продолжают раздаваться!
    Eсли вы уже удалили старые серии, то предотвратить повторную закачку старых серий можно, отжав галочку в соответсвующих местах при запуске нового торрента. По возможности, желательно не удалять старые серии как можно дольше чтобы релизёр не столько продолжал раздавать старые серии, а смог сконцентрироваться на новых.

    Релиз подготовил: skyns61
    Залил: skyn s61

    Онлайн видео Колония


    Размер скачиваемого торрента: 5.90 GB (6329920342 Bytes)

    Колония/Colony (2016) WEB-DL 720p | OMSKBIRD records
    загрузка...
    Рейтинг →
     (голосов: 1, оценка 5/5, голосовать можно 1 раз )

    Другие торренты по теме:

  • Колония / Colony (2015) WEBRip 720p | NewStudio
  • Колония / Colony (2016) WEB-DLRip | OMSKBIRD records
  • Колония / Colony (2016) WEB-DLRip | NewStudio
  • Колония / Colony (2015) WEB-DLRip | BaibaKo
  • Колония / Colony (2015) WEBRip 720p | BaibaKo
  • Колония / Colony (2016) WEB-DLRip | LostFilm
  • Колония / Colony (2015) HDTVRip 720p | Jaskier
  • Колония / Colony (2016) HDTV 720p | Gears Media


    • Комментарии (0):

      Информация

      Информация

        Посетители, находящиеся в группе Гости, не могут оставлять комментарии в данной новости.

        ↓ Меню



        ↓ Опрос

        А Вы добавили сайт в закладки?
        Да
        Не


        Top 10 за месяц (Фильмы)