.
Авторизация | Регистрация
Хочешь лучшие торренты? Добавь свой email!
Добавить
» » Некромантик 2 / Nekromantik 2 (1991) BDRip 720p | A скачать торрент бесплатно




    Некромантик 2 / Nekromantik 2 (1991) BDRip 720p | A скачать торрент бесплатно

    Опубликовал: Админ | Дата: 5-02-2016, 05:01 | Просмотров: 145



    Детально о кино
    Русское название: Некромантик 2
    Русское название в мировом прокате: Nekromantik 2
    Создали в: 1991
    Категория жанра: ужасы
    Главный режиссер: Йорг Буттгерайт

    Актеры
    Моника М., Марк Ридер, Лена Браун, Йорг Буттгерайт, Флориан Корнер фон Густорф, Кэте Крус, Ева-Мария Куртз, Дактри Лоренц

    Сюжет фильма

    Молодая и симпатичная медсестричка Моника выкопала себе героя первой части — покончившего с собой некрофила Роберта Шмадтке, для того, чтобы наслаждаться его телом дома.
    И все было бы хорошо, не появись на горизонте молодой человек Марк, который показался Монике очень милым, и с которым у нее завязались отношения. Однако подобный двойственный союз не мог продолжаться долго, и в конце концов Монике пришлось делать выбор…

    Снималось в: Германия
    Время просмотра: 01: 42: 58
    Перевод текста: Авторский (одноголосый закадровый) Алексеев
    Файл
    Кодек для видео: x264
    Качество фильма: BDRip 720p
    Информация о видео: 960x720 (4: 3), 23.976fps, MPEG4 Video (H264), 5342kbps avg, 0.322 bit/pixel
    Информация о звуке 1: 48.0KHz, AC-3, 2 ch (Front: L, R), 192kbps avg AVO Rus
    Информация о звуке 2: 48.0KHz, AC-3, 6 ch (Front: L C R, Side: L R, LFE), 448kbps avg Original German
    Субтитры: английские
    Скриншоты

    MediaInfo
    General
    Unique ID : 180484359080131917397753850990875277409 (0x87C805EE1D701F36940D8C2618E67861)
    Complete name : F: Nekromantik 2 1991 720p BluRay x264-CREEPSHOW.mkv
    Format : Matroska
    Format version : Version 4/Version 2
    File size : 4.51 GiB
    Duration : 1h 45mn
    Overall bit rate : 6 104 Kbps
    Encoded date : UTC 2016-02-04 12: 51: 18
    Writing application : mkvmerge v6.1.0 (;Old Devil;) built on Mar 4 2013 09: 10: 42
    Writing library : libebml v1.3.0 + libmatroska v1.4.0
    Video
    ID : 1
    Format : AVC
    Format/Info : Advanced Video Codec
    Format profile : High@L4.1
    Format settings, CABAC : Yes
    Format settings, ReFrames : 5 frames
    Codec ID : V_MPEG4/ISO/AVC
    Duration : 1h 45mn
    Bit rate : 5 342 Kbps
    Nominal bit rate : 5 614 Kbps
    Width : 960 pixels
    Height : 720 pixels
    Display aspect ratio : 4: 3
    Frame rate mode : Constant
    Frame rate : 23.976 fps
    Color space : YUV
    Chroma subsampling : 4: 2: 0
    Bit depth : 8 bits
    Scan type : Progressive
    Bits/(Pixel*Frame) : 0.322
    Stream size : 3.94 GiB (88%)
    Writing library : x264 core 144 r2525kMod 40bb568
    Encoding settings : cabac=1/ref=5/deblock=1: -2: -2/analyse=0x3: 0x133/me=umh/subme=9/psy=1/fade_compensate=0.00/psy_rd=1.00: 0.00/mixed_ref=1/me_range=16/chroma_me=1/trellis=1/8x8dct=1/cqm=0/deadzone=21, 11/fast_pskip=0/chroma_qp_offset=-2/threads=6/lookahead_threads=1/sliced_threads=0/nr=0/decimate=1/interlaced=0/bluray_compat=0/constrained_intra=0/fgo=0/bframes=3/b_pyramid=2/b_adapt=1/b_bias=0/direct=1/weightb=1/open_gop=0/weightp=2/keyint=250/keyint_min=23/scenecut=40/intra_refresh=0/rc_lookahead=40/rc=2pass/mbtree=1/bitrate=5614/ratetol=1.0/qcomp=0.60/qpmin=0/qpmax=69/qpstep=4/cplxblur=20.0/qblur=0.5/ip_ratio=1.40/aq=1: 1.00
    Default : Yes
    Forced : No
    Audio #1
    ID : 2
    Format : AC-3
    Format/Info : Audio Coding 3
    Mode extension : CM (complete main)
    Format settings, Endianness : Big
    Codec ID : A_AC3
    Duration : 1h 45mn
    Bit rate mode : Constant
    Bit rate : 192 Kbps
    Channel(s) : 2 channels
    Channel positions : Front: L R
    Sampling rate : 48.0 KHz
    Bit depth : 16 bits
    Compression mode : Lossy
    Stream size : 145 MiB (3%)
    Title : AVO (Алексеев)
    Language : Russian
    Default : Yes
    Forced : No
    Audio #2
    ID : 3
    Format : AC-3
    Format/Info : Audio Coding 3
    Mode extension : CM (complete main)
    Format settings, Endianness : Big
    Codec ID : A_AC3
    Duration : 1h 45mn
    Bit rate mode : Constant
    Bit rate : 448 Kbps
    Channel(s) : 6 channels
    Channel positions : Front: L C R, Side: L R, LFE
    Sampling rate : 48.0 KHz
    Bit depth : 16 bits
    Compression mode : Lossy
    Stream size : 339 MiB (7%)
    Title : Original
    Language : German
    Default : No
    Forced : No
    Text
    ID : 4
    Format : UTF-8
    Codec ID : S_TEXT/UTF8
    Codec ID/Info : UTF-8 Plain Text
    Language : English
    Default : No
    Forced : No
    Menu
    00: 00: 00.000 : en: 00: 00: 00.000
    00: 03: 42.973 : en: 00: 03: 42.973
    00: 15: 35.101 : en: 00: 15: 35.101
    00: 16: 48.591 : en: 00: 16: 48.591
    00: 19: 21.243 : en: 00: 19: 21.243
    00: 21: 52.353 : en: 00: 21: 52.353
    00: 26: 03.353 : en: 00: 26: 03.353
    00: 27: 37.155 : en: 00: 27: 37.155
    00: 30: 17.566 : en: 00: 30: 17.566
    00: 31: 23.632 : en: 00: 31: 23.632
    00: 39: 09.389 : en: 00: 39: 09.389
    00: 48: 22.108 : en: 00: 48: 22.108
    01: 00: 02.182 : en: 01: 00: 02.182
    01: 08: 57.175 : en: 01: 08: 57.175
    01: 18: 43.135 : en: 01: 18: 43.135
    01: 25: 39.468 : en: 01: 25: 39.468
    01: 34: 29.581 : en: 01: 34: 29.581
    01: 39: 57.158 : en: 01: 39: 57.158


    Онлайн видео Некромантик 2


    Размер скачиваемого торрента: 4.51 GB (4837303666 Bytes)

    Некромантик 2/Nekromantik 2 (1991) BDRip 720p | A
    загрузка...
    Рейтинг →
     (голосов: 1, оценка 5/5, голосовать можно 1 раз )

    Другие торренты по теме:



      Комментарии (0):

      Информация

      Информация

        Посетители, находящиеся в группе Гости, не могут оставлять комментарии в данной новости.

        ↓ Меню



        ↓ Опрос

        А Вы добавили сайт в закладки?
        Да
        Не


        Top 10 за месяц (Фильмы)