.
Авторизация | Регистрация
Хочешь лучшие торренты? Добавь свой email!
Добавить
» » Война и Мир / War and Peace (2016) WEB-DLRip | КПК | BaibaKo скачать торрент бесплатно




    Война и Мир / War and Peace (2016) WEB-DLRip | КПК | BaibaKo скачать торрент бесплатно

    Опубликовал: Админ | Дата: 4-02-2016, 14:05 | Просмотров: 151


    • Война и Мир/War and Peace •
    ? Снималось в: США, Великобритания
    ? Создали в: BBC Cymru Wales, BBC Worldwide, The Weinstein Company LLC
    ? Создали в: 2016
    ? Категория жанра: драма, мелодрама, военный, история
    ? Главный режиссёр: Том Харпер
    ?
    Актеры
    Анейрин Барнард, Пол Дано, Лили Джеймс, Джеймс Нортон, Оливия Росс, Рори Кинэн, Гийом Форе, Дэвид Куилтер, Кит Коннор, Отто Фаррант

    ? Перевод текста: Любительский (многоголосый, закадровый) BaibaKo


    Описание фильма
    Год 1805-ый...Французская армия под командованием Наполеона вторглась в Австрию...Наполеон продолжил свой путь на восток, и Россия решила объединиться с Австрией, чтобы дать ему отпор...Русские вступили в войну, которая навсегда изменит их жизнь. Новая экранизация романа Льва Толстого.



    ? Качество фильма: WEB-DLRip
    ? Время просмотра: по ~ 01: 00: 00

    ? Тип видео: MP4
    ? Информация о видео кодек: H.264 AVC
    ? Информация о звуке кодек: AAC-LC
    ? Свойства видео: 640x356 (1: 8: 1), 25.000 fps, 500 kbps (0.088 bit/pixel)
    ? Свойства аудио: 48.0 KHz, 2 ch, 128 kbps
    MediaInfo
    General
    Complete name : War.and.Peace.s01e01.WEB-DLRip.Rus.BaibaKo.mp4
    Format : MPEG-4
    Format profile : Base Media
    Codec ID : isom (isom/avc1/iso6)
    File size : 269 MiB
    Duration : 59mn 25s
    Overall bit rate mode : Variable
    Overall bit rate : 632 Kbps
    Encoded date : UTC 2016-01-07 13: 45: 40
    Tagged date : UTC 2016-01-07 13: 45: 40

    Video
    ID : 1
    Format : AVC
    Format/Info : Advanced Video Codec
    Format profile : High@L4.1
    Format settings, CABAC : Yes
    Format settings, ReFrames : 9 frames
    Codec ID : avc1
    Codec ID/Info : Advanced Video Coding
    Duration : 59mn 25s
    Bit rate : 500 Kbps
    Maximum bit rate : 1 437 Kbps
    Width : 640 pixels
    Height : 356 pixels
    Display aspect ratio : 16: 9
    Frame rate mode : Constant
    Frame rate : 25.000 fps
    Color space : YUV
    Chroma subsampling : 4: 2: 0
    Bit depth : 8 bits
    Scan type : Progressive
    Bits/(Pixel*Frame) : 0.088
    Stream size : 213 MiB (79%)
    Title : 264@GPAC0.5.2-DEV-rev248-g39d5978-master
    Writing library : x264 core 146 r2538 121396c
    Encoding settings : cabac=1/ref=9/deblock=1: -3: -3/analyse=0x3: 0x113/me=umh/subme=11/psy=1/psy_rd=1.00: 0.00/mixed_ref=1/me_range=32/chroma_me=1/trellis=2/8x8dct=1/cqm=0/deadzone=21, 11/fast_pskip=0/chroma_qp_offset=-2/threads=6/lookahead_threads=1/sliced_threads=0/nr=0/decimate=0/interlaced=0/bluray_compat=0/constrained_intra=0/bframes=9/b_pyramid=2/b_adapt=2/b_bias=0/direct=3/weightb=1/open_gop=0/weightp=2/keyint=240/keyint_min=24/scenecut=40/intra_refresh=0/rc=2pass/mbtree=0/bitrate=500/ratetol=1.0/qcomp=0.60/qpmin=0/qpmax=69/qpstep=4/cplxblur=20.0/qblur=0.5/ip_ratio=1.40/pb_ratio=1.30/aq=1: 1.00
    Encoded date : UTC 2016-01-07 13: 45: 40
    Tagged date : UTC 2016-01-07 13: 46: 00

    Audio
    ID : 2
    Format : AAC
    Format/Info : Advanced Audio Codec
    Format profile : LC
    Codec ID : 40
    Duration : 59mn 25s
    Bit rate mode : Variable
    Bit rate : 128 Kbps
    Maximum bit rate : 150 Kbps
    Channel(s) : 2 channels
    Channel positions : Front: L R
    Sampling rate : 48.0 KHz
    Frame rate : 46.875 fps (1024 spf)
    Compression mode : Lossy
    Stream size : 54.4 MiB (20%)
    Encoded date : UTC 2016-01-07 11: 39: 57
    Tagged date : UTC 2016-01-07 13: 46: 00
    Скриншоты

    Залил: ProT1gR

    Онлайн видео Война и Мир


    Размер скачиваемого торрента: 1.05 GB (1129684604 Bytes)

    Война и Мир/War and Peace (2016) WEB-DLRip | КПК | BaibaKo
    загрузка...
    Рейтинг →
     (голосов: 1, оценка 3/5, голосовать можно 1 раз )

    Другие торренты по теме:

  • Война и Мир / War and Peace (2007) BDRip 720p | D
  • Война и мир / War and Peace (2016) HDTVRip | NewStudio
  • Война и Мир / War and Peace (2016) WEB-DLRip | Alternative Production
  • Война и мир / War and Peace (2016) WEB-DL 1080p | NewStudio
  • Война и мир / War and Peace (2016) WEB-DLRip-AVC | NewStudio
  • Война и мир / War and Peace (2016) HDTV 720p | Jaskier
  • Война и мир / War and Peace (2016) HDTV 1080p | Alternative Production
  • Война и Мир / War and Peace (2016) BDRip 1080p от HDLine | LostFilm


    • Комментарии (0):

      Информация

      Информация

        Посетители, находящиеся в группе Гости, не могут оставлять комментарии в данной новости.

        ↓ Меню



        ↓ Опрос

        А Вы добавили сайт в закладки?
        Да
        Не


        Top 10 за месяц (Фильмы)