.
Авторизация | Регистрация
Хочешь лучшие торренты? Добавь свой email!
Добавить
» » Чёрные паруса / Black Sails (2016) HDTVRip | КПК | LostFilm скачать торрент бесплатно




    Чёрные паруса / Black Sails (2016) HDTVRip | КПК | LostFilm скачать торрент бесплатно

    Опубликовал: Админ | Дата: 4-02-2016, 14:04 | Просмотров: 130


    • Чёрные паруса/Black Sails •
    ? Снималось в: США, ЮАР
    ? Создали в: Film Afrika Worldwide CC, Platinum Dunes, Quaker Moving Pictures
    ? Создали в: 2016
    ? Категория жанра: драма, приключения
    ? Главный режиссёр: Стив Бойум, Алик Сахаров, Лукас Эттлин
    ?
    Актеры
    Тоби Стивенс, Ханна Нью, Люк Арнольд, Зак Макгоун, Тоби Шмитц, Клара Пэджет, Марк Райан, Хаким Кае-Казим, Дилан Скьюс, Шон Майкл, Джессика Паркер Кеннеди, Том Хоппер и др

    ? Перевод текста: Профессиональный (многоголосый закадровый) от LostFilm


    Описание фильма
    1715 год. Золотой век — вершина пиратства в Карибском море. Остров бывшей британской колонии Нью-Провиденс является территорией беззакония, контролируемый самыми известными пиратскими капитанами в истории. Самым грозным из них является капитан Флинт. Но британский флот возвращается в эти воды, угрожая уничтожить Флинта и его команду. Движимый глубокими, сложными, даже романтическими мотивами, Флинт становится союзником с грозной Элеонорой Гатри, дочерью местного вора в законе, который превращает добычу пиратов в прибыль. Вместе они создают план, охотясь за высшей наградой, выиграв которую, они остановят захват своего дома и обеспечат их выживание. Им противостоит ряд соперников: конкурент капитана, завидующий власти Флинта, отец Элеоноры, чьи амбиции на острове приводят к конфликту с дочерью, и молодой моряк, Джон Сильвер, недавно принятый в экипаж Флинта, которому каким-то образом удается постоянно срывать планы своего капитана.



    ? Качество фильма: HDTVRip
    ? Время просмотра: по ~ 01: 00: 00

    ? Тип видео: MP4
    ? Информация о видео кодек: H.264 AVC
    ? Информация о звуке кодек: AAC-LC
    ? Свойства видео: 640x360 (16: 9), 23.976 fps, 500 kbps (0.091 bit/pixel)
    ? Свойства аудио: 48.0 KHz, 2 ch, 128 kbps
    MediaInfo
    General
    Complete name : Black.Sails.S03E01.HDTVRip.rus.LostFilm.mp4
    Format : MPEG-4
    Format profile : Base Media
    Codec ID : isom (isom/avc1/iso6)
    File size : 271 MiB
    Duration : 1h 0mn
    Overall bit rate mode : Variable
    Overall bit rate : 632 Kbps
    Encoded date : UTC 2016-01-25 20: 16: 33
    Tagged date : UTC 2016-01-25 20: 16: 33

    Video
    ID : 1
    Format : AVC
    Format/Info : Advanced Video Codec
    Format profile : High@L4.1
    Format settings, CABAC : Yes
    Format settings, ReFrames : 9 frames
    Codec ID : avc1
    Codec ID/Info : Advanced Video Coding
    Duration : 1h 0mn
    Bit rate : 500 Kbps
    Maximum bit rate : 1 293 Kbps
    Width : 640 pixels
    Height : 360 pixels
    Display aspect ratio : 16: 9
    Frame rate mode : Constant
    Frame rate : 23.976 (24000/1001) fps
    Color space : YUV
    Chroma subsampling : 4: 2: 0
    Bit depth : 8 bits
    Scan type : Progressive
    Bits/(Pixel*Frame) : 0.091
    Stream size : 215 MiB (79%)
    Title : 264@GPAC0.5.2-DEV-rev248-g39d5978-master
    Writing library : x264 core 146 r2538 121396c
    Encoding settings : cabac=1/ref=9/deblock=1: -3: -3/analyse=0x3: 0x113/me=umh/subme=11/psy=1/psy_rd=1.00: 0.00/mixed_ref=1/me_range=32/chroma_me=1/trellis=2/8x8dct=1/cqm=0/deadzone=21, 11/fast_pskip=0/chroma_qp_offset=-2/threads=6/lookahead_threads=1/sliced_threads=0/nr=0/decimate=0/interlaced=0/bluray_compat=0/constrained_intra=0/bframes=9/b_pyramid=2/b_adapt=2/b_bias=0/direct=3/weightb=1/open_gop=0/weightp=2/keyint=240/keyint_min=23/scenecut=40/intra_refresh=0/rc=2pass/mbtree=0/bitrate=500/ratetol=1.0/qcomp=0.60/qpmin=0/qpmax=69/qpstep=4/cplxblur=20.0/qblur=0.5/ip_ratio=1.40/pb_ratio=1.30/aq=1: 1.00
    Encoded date : UTC 2016-01-25 20: 16: 33
    Tagged date : UTC 2016-01-25 20: 16: 46

    Audio
    ID : 2
    Format : AAC
    Format/Info : Advanced Audio Codec
    Format profile : LC
    Codec ID : 40
    Duration : 1h 0mn
    Bit rate mode : Variable
    Bit rate : 128 Kbps
    Maximum bit rate : 146 Kbps
    Channel(s) : 2 channels
    Channel positions : Front: L R
    Sampling rate : 48.0 KHz
    Frame rate : 46.875 fps (1024 spf)
    Compression mode : Lossy
    Stream size : 54.9 MiB (20%)
    Encoded date : UTC 2016-01-25 18: 08: 27
    Tagged date : UTC 2016-01-25 20: 16: 46
    Скриншоты

    Залил: ProT1gR

    Онлайн видео Чёрные паруса


    Размер скачиваемого торрента: 520.75 MB (546047585 Bytes)

    Чёрные паруса/Black Sails (2016) HDTVRip | КПК | LostFilm
    загрузка...
    Рейтинг →
     (голосов: 1, оценка 5/5, голосовать можно 1 раз )

    Другие торренты по теме:

  • Чёрные паруса / Black Sails (2014) HDTV 720p | Kerob
  • Чёрные паруса / Black Sails (2014) HDTVRip | Kerob
  • Чёрные Паруса / Black Sails (2014) HDTVRip 720p | BaibaKo скачать через торрент бесплатно
  • Чёрные Паруса / Black Sails (2014) HDTVRip | BaibaKo скачать через торрент бесплатно
  • Чёрные паруса / Black Sails (2014) HDTV1080i | BaibaKo скачать через торрент бесплатно
  • Чёрные Паруса / Black Sails (2014) HDTVRip 720p | LostFilm
  • Чёрные Паруса / Black Sails (2014) HDTVRip | LostFilm
  • Чёрные Паруса / Black Sails (2014) HDTVRip-AVC 1080p | AlexFilm


    • Комментарии (0):

      Информация

      Информация

        Посетители, находящиеся в группе Гости, не могут оставлять комментарии в данной новости.

        ↓ Меню



        ↓ Опрос

        А Вы добавили сайт в закладки?
        Да
        Не


        Top 10 за месяц (Фильмы)