.
Авторизация | Регистрация
Хочешь лучшие торренты? Добавь свой email!
Добавить




Волки (2009) DVDRip от New-Team скачать торрент бесплатно

Опубликовал: Админ | Дата: 2-02-2016, 05:01 | Просмотров: 138



Снималось в: Республика Беларусь
Категория жанра: драма
Создали в: 2009
Время просмотра: 01: 45: 47
Перевод текста: не требуется
Субтитры подготовлены: нет
Оригинальная аудиодорожка: русский
Главный режиссеры: Александр Колбышев

Актеры

Дмитрий Ульянов, Андрей Панин, Коля Спиридонов, Владимир Гостюхин, Тамара Миронова, Сергей Власов, Оксана Лесная, Галина Кухальская, Светлана Никифорова, Зинаида Зубкова...
Описание:
Побег арестанта Кирилла Полетаева ставит в сложную ситуацию дорогих ему людей. Каждый из них, ни на секунду не задумываясь, делает все возможное и невозможное, чтобы помочь ему, зная, что заплатит за это самую дорогую цену — свою жизнь.




Исходник: DVD5 R5
Качество фильма: DVDRip
Тип видео: AVI
Информация о видео: 640x352 (16: 9), 25.000 fps, XviD MPEG-4 ~ 847 kbps avg, 0.150 bit/pixel
Информация о звуке: 48 kHz, Dolby MP3, 2 ch, 128.00 kbps Constant
Раздача от:
MediaInfo

Общее
Полное имя : Volki.2009.O.DVDRip_Youtracker_by_AVPSudio.avi
Формат : AVI
Формат/Информация : Audio Video Interleave
Размер файла : 745 Мбайт
Продолжительность : 1 ч. 45 м.
Общий поток : 985 Кбит/сек
Программа кодирования : VirtualDubMod 1.5.10.3 | www.virtualdub-fr.org || (build 2550/release)
Библиотека кодирования : VirtualDubMod build 2550/release
Видео
Идентификатор : 0
Формат : MPEG-4 Visual
Профиль формата : Advanced Simple@L5
Параметр BVOP формата : 1
Параметр QPel формата : Нет
Параметр GMC формата : Без точки перехода
Параметр матрицы формата : Выборочная
Идентификатор кодека : XVID
Идентификатор кодека/Подсказка : XviD
Продолжительность : 1 ч. 45 м.
Битрейт : 847 Кбит/сек
Ширина : 640 пикселей
Высота : 352 пикселя
Соотношение сторон : 16: 9
Частота кадров : 25, 000 кадров/сек
Цветовое пространство : YUV
Субдискретизация насыщенности : 4: 2: 0
Битовая глубина : 8 бит
Тип развёртки : Прогрессивная
Метод сжатия : С потерями
Бит/(Пиксели*Кадры) : 0.150
Размер потока : 641 Мбайт (86%)
Библиотека кодирования : XviD 65
Аудио
Идентификатор : 1
Формат : MPEG Audio
Версия формата : Version 1
Профиль формата : Layer 3
Идентификатор кодека : 55
Идентификатор кодека/Подсказка : MP3
Продолжительность : 1 ч. 45 м.
Вид битрейта : Постоянный
Битрейт : 128 Кбит/сек
Каналы : 2 канала
Частота : 48, 0 КГц
Метод сжатия : С потерями
Размер потока : 96, 8 Мбайт (13%)
Выравнивание : Соединение по промежуткам
Продолжительность промежутка : 40 мс. (1, 00 видеокадр)
Время предзагрузки промежутка : 504 мс.
Библиотека кодирования : L3.99r
Залил: AVPStudio

Онлайн видео Волки (2009) DVDRip от New


Размер скачиваемого торрента: 744.91 MB (781092864 Bytes)


Волки (2009) DVDRip от New-Team
загрузка...
Рейтинг →
 (голосов: 1, оценка 4/5, голосовать можно 1 раз )

Другие торренты по теме:

  • Большие плохие волки / Big Bad Wolves (2006) DVDRip | L1
  • Серые волки / Немецкие подводные лодки 1939-1945 / Grey wolves / U-boats 1939-1945 (2005) DVDRip-AVC от -=HD-NET=-
  • Белые волки (2012) DVDRip
  • Discovery: Волки / Discovery: Wolves At Our Door (1997) DVDRip от -=HD-NET=-
  • Волки (2014) DVDRip скачать через торрент бесплатно
  • Волки / Wolves (2014) DVDRip-AVC от ExKinoRay | D | Лицензия скачать через торрент бесплатно
  • Волки и овцы (1953) DVDRip от New-Team
  • Волки / Les Loups (2014) DVDRip От Cmert | L1


    • Комментарии (0):

      Информация

      Информация

        Посетители, находящиеся в группе Гости, не могут оставлять комментарии в данной новости.

        ↓ Меню



        ↓ Опрос

        А Вы добавили сайт в закладки?
        Да
        Не


        Top 10 за месяц (Фильмы)