.
Авторизация | Регистрация
Хочешь лучшие торренты? Добавь свой email!
Добавить




Актриса (1943) DVDRip от New-Team скачать торрент бесплатно

Опубликовал: Админ | Дата: 2-02-2016, 05:00 | Просмотров: 115



Снималось в: СССР
Создали в: Студия Алма-Ата
Категория жанра: мелодрама, комедия, военный
Создали в: 1943
Время просмотра: 01: 11: 36
Перевод текста: Не требуется
Субтитры подготовлены: нет
Оригинальная аудиодорожка: русский
Главный режиссер: Леонид Трауберг

Актеры

Галина Сергеева (вокал - Вера Красовицкая), Борис Бабочкин, Зинаида Морская, Владимир Грибков, Михаил Жаров, Юрий Коршун, Константин Сорокин, Николай Темяков, Владимир Шишкин, Александра Денисова, Георгий Гумилевский, Георгий Светлани, Григорий Шпигель, Юрий Боголюбов, Инна Фёдорова, Манефа Соболевская, Александра Данилова, Владимир Уральский, Михаил Кузнецов, Зоя Толбузина (Земнухова)...
Описание:
Известная актриса оперетты, посчитав, что в годы войны ее профессия неуместна, решила оставить музыку. Но желание услышать песню на фронте, в тылу и в госпиталях оказалось для многих естественным и необходимым, а для певицы — стало открытием. Актриса возвращается в театр...



Источник: DVD5 R5
Качество фильма видео: DVDRip
Тип видео видео: AVI
Информация о видео: 688x512 (4: 3), 25 fps, XviD ~ 1353 kbps avg, 0.154 bit/pixel
Информация о звуке: 48 kHz, MP3 2.0, 128 kbps
Раздача от:
MediaInfo

Общее
Полное имя : Aktrisa.1943.DVDRip-745_New-team_by_AVP_Studio.avi
Формат : AVI
Формат/Информация : Audio Video Interleave
Размер файла : 764 Мбайт
Продолжительность : 1 ч. 11 м.
Общий поток : 1491 Кбит/сек
Программа кодирования : VirtualDubModRus 1.5.10.2 (build 2542/release)
Библиотека кодирования : VirtualDubMod build 2542/release
Видео
Идентификатор : 0
Формат : MPEG-4 Visual
Профиль формата : Advanced Simple@L5
Параметр BVOP формата : 1
Параметр QPel формата : Нет
Параметр GMC формата : Без точки перехода
Параметр матрицы формата : Выборочная
Идентификатор кодека : XVID
Идентификатор кодека/Подсказка : XviD
Продолжительность : 1 ч. 11 м.
Битрейт : 1353 Кбит/сек
Ширина : 688 пикселей
Высота : 512 пикселей
Соотношение сторон : 4: 3
Частота кадров : 25, 000 кадров/сек
Цветовое пространство : YUV
Субдискретизация насыщенности : 4: 2: 0
Битовая глубина : 8 бит
Тип развёртки : Прогрессивная
Метод сжатия : С потерями
Бит/(Пиксели*Кадры) : 0.154
Размер потока : 693 Мбайт (91%)
Библиотека кодирования : XviD 73
Аудио
Идентификатор : 1
Формат : MPEG Audio
Версия формата : Version 1
Профиль формата : Layer 3
Идентификатор кодека : 55
Идентификатор кодека/Подсказка : MP3
Продолжительность : 1 ч. 11 м.
Вид битрейта : Постоянный
Битрейт : 128 Кбит/сек
Каналы : 2 канала
Частота : 48, 0 КГц
Метод сжатия : С потерями
Размер потока : 65, 6 Мбайт (9%)
Выравнивание : Соединение по промежуткам
Продолжительность промежутка : 40 мс. (1, 00 видеокадр)
Время предзагрузки промежутка : 504 мс.
Библиотека кодирования : LAME3.99r
Залил: AVPStudio

Онлайн видео Актриса (1943) DVDRip от New


Размер скачиваемого торрента: 763.68 MB (800772096 Bytes)


Актриса (1943) DVDRip от New-Team
загрузка...
Рейтинг →
 (голосов: 1, оценка 3/5, голосовать можно 1 раз )

Другие торренты по теме:

  • Моя жена - актриса / Ma femme est une actrice (2001) DVDRip-AVC | P


    • Комментарии (0):

      Информация

      Информация

        Посетители, находящиеся в группе Гости, не могут оставлять комментарии в данной новости.

        ↓ Меню



        ↓ Опрос

        А Вы добавили сайт в закладки?
        Да
        Не


        Top 10 за месяц (Фильмы)