.
Авторизация | Регистрация
Хочешь лучшие торренты? Добавь свой email!
Добавить
» » Наше лето / La belle saison (2015) BDRip 720p | L2 скачать торрент бесплатно




    Наше лето / La belle saison (2015) BDRip 720p | L2 скачать торрент бесплатно

    Опубликовал: Админ | Дата: 29-01-2016, 05:01 | Просмотров: 146



    Детально о кино
    Русское название: Наше лето
    Русское название в мировом прокате: La belle saison
    Создали в: 2015
    Категория жанра: драма, мелодрама
    Главный режиссер: Катрин Корсини

    Актеры
    Сесиль Де Франс, Изиа Ижлен, Ноэми Львовски, Жан-Анри Компере, Loulou Hanssen, Кевин Азиз, Бенжамин Беллекур, Летиция Дош, Сара Суко, Калипсо Валуа

    Сюжет фильма
    1971 год. Дельфин 23 года, она родилась в крестьянской семье. В один прекрасный день она уезжает в Париж, чтобы стать финансово независимой. Кароль — парижанка. Ей 35 лет. Она живет с Манюэлем и активно переживает зарождающийся феминизм. Когда Дельфин и Кароль знакомятся друг с другом, их история любви меняет полностью курс их жизни. Но Дельфин вынуждена вернуться на ферму. Кароль сопровождает ее. Здесь им приходится столкнуться с другой реальностью.


    Снималось в: Франция, Бельгия
    Время просмотра: 01: 45: 18
    Тип перевода: Любительское (двухголосное) den904 DeadSno
    Примечание: Релиз без рекламы.
    Файл
    Тип видео: MKV
    Качество фильма: BDRip 720p
    Информация о видео: MPEG-4 AVC, 4430 kb/s, 1280x536
    Информация о звуке: Russian: AC3, 192 kb/s (2 ch)/French: DTS, 1510 kb/s (6 ch)
    MI

    Format : Matroska
    Format version : Version 2
    File size : 4.51 GiB
    Duration : 1h 45mn
    Overall bit rate : 6 127 Kbps
    Encoded date : UTC 2016-01-28 23: 00: 19
    Writing application : mkvmerge v7.8.0 (;River Man;) 32bit built on Apr 3 2015 12: 11: 22
    Writing library : libebml v1.3.1 + libmatroska v1.4.2
    Video
    ID : 1
    Format : AVC
    Format/Info : Advanced Video Codec
    Format profile : High@L4.1
    Format settings, CABAC : Yes
    Format settings, ReFrames : 5 frames
    Codec ID : V_MPEG4/ISO/AVC
    Duration : 1h 45mn
    Bit rate : 4 430 Kbps
    Width : 1 280 pixels
    Height : 536 pixels
    Display aspect ratio : 2.40: 1
    Frame rate mode : Constant
    Frame rate : 23.976 fps
    Color space : YUV
    Chroma subsampling : 4: 2: 0
    Bit depth : 8 bits
    Scan type : Progressive
    Bits/(Pixel*Frame) : 0.269
    Stream size : 3.17 GiB (70%)
    Writing library : x264 core 148 r2665 a01e339
    Encoding settings : cabac=1/ref=5/deblock=1: 0: 0/analyse=0x3: 0x113/me=umh/subme=8/psy=1/psy_rd=1.00: 0.00/mixed_ref=1/me_range=16/chroma_me=1/trellis=1/8x8dct=1/cqm=0/deadzone=21, 11/fast_pskip=1/chroma_qp_offset=-2/threads=17/lookahead_threads=2/sliced_threads=0/nr=0/decimate=1/interlaced=0/bluray_compat=0/constrained_intra=0/bframes=3/b_pyramid=2/b_adapt=2/b_bias=0/direct=3/weightb=1/open_gop=0/weightp=2/keyint=240/keyint_min=24/scenecut=40/intra_refresh=0/rc_lookahead=50/rc=2pass/mbtree=1/bitrate=4430/ratetol=1.0/qcomp=0.60/qpmin=0/qpmax=69/qpstep=4/cplxblur=20.0/qblur=0.5/ip_ratio=1.40/aq=1: 1.00
    Language : French
    Default : Yes
    Forced : No
    Audio #1
    ID : 2
    Format : AC-3
    Format/Info : Audio Coding 3
    Mode extension : CM (complete main)
    Format settings, Endianness : Big
    Codec ID : A_AC3
    Duration : 1h 45mn
    Bit rate mode : Constant
    Bit rate : 192 Kbps
    Channel(s) : 2 channels
    Channel positions : Front: L R
    Sampling rate : 48.0 KHz
    Bit depth : 16 bits
    Compression mode : Lossy
    Stream size : 145 MiB (3%)
    Language : Russian
    Default : Yes
    Forced : No
    Audio #2
    ID : 3
    Format : DTS
    Format/Info : Digital Theater Systems
    Mode : 16
    Format settings, Endianness : Big
    Codec ID : A_DTS
    Duration : 1h 45mn
    Bit rate mode : Constant
    Bit rate : 1 509 Kbps
    Channel(s) : 6 channels
    Channel positions : Front: L C R, Side: L R, LFE
    Sampling rate : 48.0 KHz
    Bit depth : 24 bits
    Compression mode : Lossy
    Stream size : 1.11 GiB (25%)
    Language : French
    Default : No
    Forced : No
    Menu
    00: 00: 00.000 : en: 00: 00: 00.000
    00: 09: 58.264 : en: 00: 09: 58.264
    00: 18: 28.774 : en: 00: 18: 28.774
    00: 31: 11.078 : en: 00: 31: 11.078
    00: 40: 59.374 : en: 00: 40: 59.374
    00: 49: 26.839 : en: 00: 49: 26.839
    00: 57: 14.097 : en: 00: 57: 14.097
    01: 06: 25.857 : en: 01: 06: 25.857
    01: 18: 10.644 : en: 01: 18: 10.644
    01: 28: 17.459 : en: 01: 28: 17.459
    01: 38: 01.667 : en: 01: 38: 01.667
    Скриншоты






    Онлайн видео Наше лето


    Размер скачиваемого торрента: 4.51 GB (4838941594 Bytes)

    Наше лето/La belle saison (2015) BDRip 720p | L2
    загрузка...
    Рейтинг →
     (голосов: 1, оценка 5/5, голосовать можно 1 раз )

    Другие торренты по теме:

  • Dan Balan и Вера Брежнева - Наше лето (2017) WEBRip 1080p


    • Комментарии (0):

      Информация

      Информация

        Посетители, находящиеся в группе Гости, не могут оставлять комментарии в данной новости.

        ↓ Меню



        ↓ Опрос

        А Вы добавили сайт в закладки?
        Да
        Не


        Top 10 за месяц (Фильмы)