.
Авторизация | Регистрация
Хочешь лучшие торренты? Добавь свой email!
Добавить
» » Легенда / Legend (2015) BDRip 1080p от BlueBird | Лицензия скачать торрент бесплатно




    Легенда / Legend (2015) BDRip 1080p от BlueBird | Лицензия скачать торрент бесплатно

    Опубликовал: Админ | Дата: 29-01-2016, 05:01 | Просмотров: 72



    Детально о кино
    Русское название: Легенда
    Русское название в мировом прокате: Legend
    Создали в: 2015
    Категория жанра: криминал, триллер, драма
    Главный режиссер: Брайан Хелгеленд

    Актеры
    Том Харди, Эмили Браунинг, Дэвид Тьюлис, Даффи, Кристофер Экклстон, Чазз Пальминтери, Колин Морган, Джошуа Хилл, Пол Андерсон, Тара Фитцджеральд

    Сюжет фильма

    Фильм расскажет историю близнецов Реджи и Ронни Крэй, культовых фигур преступного мира Великобритании 1960-х. Братья возглавляли самую влиятельную бандитскую группировку Ист-Энда. В их послужном списке: вооруженные грабежи, рэкет, поджоги, покушения, убийства и собственный ночной клуб, куда доезжали даже голливудские знаменитости. Среди их жертв — криминальные авторитеты Джек МакВитти и Джордж Корнелл.

    Снималось в: Великобритания, США, Франция
    Киностудия: Cross Creek Pictures, Working Title Films
    Время просмотра: 02: 11: 09
    Перевод текста: Профессиональный (дублированный) Blu-ray RUS
    Релиз:
    Файл
    Тип видео: Matroska
    Информация о видео: 1920x804 at 24.000 fps, x264@L4.1, ~13300 kbps avg
    Aудио#1: Russian: 48 kHz, DTS, 3/2 (L, C, R, l, r) + LFE ch, ~1509.00 kbps avg |Дубляж, Blu-ray RUS|
    Aудио#2: Russian: 48 kHz, AC3, 3/2 (L, C, R, l, r) + LFE ch, ~640.00 kbps avg |Дубляж, Blu-ray RUS|
    Aудио#3: English: 48 kHz, DTS, 3/2 (L, C, R, l, r) + LFE ch, ~1509.00 kbps avg
    Субтитры: English, English (SDH)
    ***Сохранены оригинальные главы как на Blu-ray.
    ***Видеоряд - HDMaNiAcS, сборка рипа - bog3417.
    Знаете ли Вы, что...
    Фильм основан на книге The Profession of Violence: The Rise and Fall of the Kray Twins (#171;Профессия #8211; насилие: Взлет и падение близнецов Крэй#187;) Джона Пирсона (John Pearson).
    Участники британской инди-поп-группы Thumpers Маркус Пепперелл (Marcus Pepperell) и Джон Хэмсон мл. (John Hamson Jr.) снялись в эпизодических ролях. Они сыграли участников группы, играющей во время первой песни Даффи.
    Том Харди серьезно повредил лодыжку во время съемок драки в пабе.
    Паб в фильме #8211; это старинный паб Tuners Old Star в Вэппинге, Лондон. Многие детали паба были изменены для съемок. Экран, расположенный на верхушке бара, настоящий, но часть экрана пришлось демонтировать для того, чтобы разместить большие камеры. Пришлось заменить также осветительные приборы в пабе и перекрасить стены. Квадратные указатели пивоварни в фильме также настоящие.
    Съемки фильма проходили в Лондоне, Великобритания.
    Выйдя на экраны Великобритании в начале сентября, Легенда побила рекорды традиционных бокс-офисов этого сезон любимого сериалаа. Впервые в истории кинопроката в Англии Легенда собрала беспрецедентные для сентября 5, 18 миллиона фунтов (8 миллионов долларов) и вошла в топ-лист самых кассовых фильмов Великобритании.
    Паб The Blind Beggar, который показывают в фильме, это на самом деле паб The Royal Oak, расположенный на Коламбия-роуд в Лондоне. Этот паб также использовался во многих британских телевизионных программах.
    В одной из сцен фильма видно закрашенную современную дорожную разметку.
    Когда Фрэнсис уходит от Реджи и разговаривает с Ронни, видно, что некоторые квартиры имеют современное двойное остекление.
    У нескольких домов на улице, где живет Фрэнсис, видны кабели, идущие от земли вверх по дому. Таким образом подводится кабельное телевидение, однако оно появилось в этой части Лондона лишь в 1984 году, а не в начале 1960-х.
    В одной сцене у дорожной развилки можно заметить современного лежачего полицейского, который находится позади Фрэнсис.
    Когда инспектор Ниппер прочесывает аллею, на стене дома видны пластиковые трубы, идущие от конденсационного котла. В то время еще не было таких котлов, а трубы могли быть сделаны из меди, свинца или железа, но не из пластика.
    После того как Корнелла застрелили, и Ронни выбегает из паба, рядом с дверью можно увидеть объявление с бесплатным номером телефона (Freephone и номер начинающийся на 0800). Бесплатные номера появились в Великобритании лишь в 1985 году.
    MI
    Общее
    Уникальный идентификатор : 233173445370290573419100446475529977295 (0xAF6B92730350E4379BF73032C3B37DCF)
    Полное имя : Legend.2015.BDRip.1080p.BLUEBIRD.mkv
    Формат : Matroska
    Версия формата : Version 2
    Размер файла : 15, 8 Гбайт
    Продолжительность : 2 ч. 11 м.
    Общий поток : 17, 2 Мбит/сек
    Дата кодирования : UTC 2016-01-27 21: 09: 43
    Программа кодирования : mkvmerge v7.9.0 (;Birds;) 64bit
    Библиотека кодирования : libebml v1.3.1 + libmatroska v1.4.2
    Видео
    Идентификатор : 1
    Формат : AVC
    Формат/Информация : Advanced Video Codec
    Профиль формата : High@L4.1
    Параметр CABAC формата : Да
    Параметр ReFrames формата : 5 кадров
    Идентификатор кодека : V_MPEG4/ISO/AVC
    Продолжительность : 2 ч. 11 м.
    Битрейт : 13, 2 Мбит/сек
    Ширина : 1920 пикселей
    Высота : 804 пикселя
    Соотношение сторон : 2, 40: 1
    Режим частоты кадров : Постоянный
    Частота кадров : 24, 000 кадра/сек
    Цветовое пространство : YUV
    Субдискретизация насыщенности : 4: 2: 0
    Битовая глубина : 8 бит
    Тип развёртки : Прогрессивная
    Бит/(Пиксели*Кадры) : 0.357
    Размер потока : 12, 1 Гбайт (77%)
    Заголовок : Legend.2015.BDRip.1080p.BLUEBIRD
    Библиотека кодирования : x264 core 146 r2538 121396c
    Настройки программы : cabac=1/ref=5/deblock=1: -3: -3/analyse=0x3: 0x133/me=umh/subme=11/psy=1/psy_rd=1.00: 0.00/mixed_ref=1/me_range=32/chroma_me=1/trellis=2/8x8dct=1/cqm=0/deadzone=21, 11/fast_pskip=0/chroma_qp_offset=-2/threads=60/lookahead_threads=6/sliced_threads=0/nr=0/decimate=0/interlaced=0/bluray_compat=0/constrained_intra=0/bframes=12/b_pyramid=2/b_adapt=2/b_bias=0/direct=3/weightb=1/open_gop=0/weightp=2/keyint=240/keyint_min=24/scenecut=40/intra_refresh=0/rc_lookahead=150/rc=crf/mbtree=0/crf=15.5/qcomp=0.60/qpmin=0/qpmax=69/qpstep=4/vbv_maxrate=62500/vbv_bufsize=78125/crf_max=0.0/nal_hrd=none/filler=0/ip_ratio=1.40/pb_ratio=1.30/aq=1: 0.80
    Default : Да
    Forced : Нет
    Аудио #1
    Идентификатор : 2
    Формат : DTS
    Формат/Информация : Digital Theater Systems
    Режим : 16
    Параметр Endianness формата : Big
    Идентификатор кодека : A_DTS
    Продолжительность : 2 ч. 11 м.
    Вид битрейта : Постоянный
    Битрейт : 1509 Кбит/сек
    Каналы : 6 каналов
    Расположение каналов : Front: L C R, Side: L R, LFE
    Частота : 48, 0 КГц
    Битовая глубина : 24 бит
    Метод сжатия : С потерями
    Размер потока : 1, 38 Гбайт (9%)
    Заголовок : BD RUS
    Язык : Russian
    Default : Да
    Forced : Нет
    Аудио #2
    Идентификатор : 3
    Формат : AC-3
    Формат/Информация : Audio Coding 3
    Расширение режима : CM (complete main)
    Параметр Endianness формата : Big
    Идентификатор кодека : A_AC3
    Продолжительность : 2 ч. 11 м.
    Вид битрейта : Постоянный
    Битрейт : 640 Кбит/сек
    Каналы : 6 каналов
    Расположение каналов : Front: L C R, Side: L R, LFE
    Частота : 48, 0 КГц
    Метод сжатия : С потерями
    Размер потока : 600 Мбайт (4%)
    Заголовок : BD RUS
    Язык : Russian
    Default : Нет
    Forced : Нет
    Аудио #3
    Идентификатор : 4
    Формат : DTS
    Формат/Информация : Digital Theater Systems
    Режим : 16
    Параметр Endianness формата : Big
    Идентификатор кодека : A_DTS
    Продолжительность : 2 ч. 11 м.
    Вид битрейта : Постоянный
    Битрейт : 1509 Кбит/сек
    Каналы : 6 каналов
    Расположение каналов : Front: L C R, Side: L R, LFE
    Частота : 48, 0 КГц
    Битовая глубина : 24 бит
    Метод сжатия : С потерями
    Размер потока : 1, 38 Гбайт (9%)
    Язык : English
    Default : Нет
    Forced : Нет
    Текст #1
    Идентификатор : 5
    Формат : UTF-8
    Идентификатор кодека : S_TEXT/UTF8
    Идентификатор кодека/Информация : UTF-8 Plain Text
    Заголовок : English
    Язык : English
    Default : Нет
    Forced : Нет
    Текст #2
    Идентификатор : 6
    Формат : UTF-8
    Идентификатор кодека : S_TEXT/UTF8
    Идентификатор кодека/Информация : UTF-8 Plain Text
    Заголовок : English-SDH
    Язык : English
    Default : Нет
    Forced : Нет
    Меню
    00: 00: 00.000 : en: Chapter 1
    00: 10: 25.292 : en: Chapter 2
    00: 21: 04.917 : en: Chapter 3
    00: 30: 57.125 : en: Chapter 4
    00: 43: 26.292 : en: Chapter 5
    00: 50: 36.958 : en: Chapter 6
    01: 02: 41.333 : en: Chapter 7
    01: 12: 30.375 : en: Chapter 8
    01: 23: 04.042 : en: Chapter 9
    01: 33: 02.708 : en: Chapter 10
    01: 43: 27.292 : en: Chapter 11
    01: 54: 15.667 : en: Chapter 12
    Скриншоты




    Онлайн видео Легенда


    Размер скачиваемого торрента: 15.80 GB (16963163369 Bytes)

    Легенда/Legend (2015) BDRip 1080p от BlueBird | Лицензия
    загрузка...
    Рейтинг →
     (голосов: 1, оценка 4/5, голосовать можно 1 раз )

    Другие торренты по теме:

  • Легенда / Legend (1985) BDRip 1080p от NNNB | P | Theatrical Cut скачать через торрент бесплатно
  • Легенда / Legend (2015) DVDScr *PROPER* | Чистый звук
  • Легенда / Legend (2015) HDRip | КПК | iTunes
  • Легенда / Legend (2015) BDRip-AVC от HELLYWOOD | iTunes
  • Легенда / Legend (2015) BDRip-AVC от New-Team | Лицензия
  • Легенда / Legend (2015) HDRip от Scarabey | US Transfer | Лицензия
  • Легенда / Legend (2015) HDRip-AVC | D | Лицензия
  • Доктор заяц и легенда о Зубном королевстве / Legend of dental Kingdom (2009) DVDRip от RG Superdetki


    • Комментарии (0):

      Информация

      Информация

        Посетители, находящиеся в группе Гости, не могут оставлять комментарии в данной новости.

        ↓ Меню



        ↓ Опрос

        А Вы добавили сайт в закладки?
        Да
        Не


        Top 10 за месяц (Фильмы)