.
Авторизация | Регистрация
Хочешь лучшие торренты? Добавь свой email!
Добавить
» » Мажор (2014) WEB-DLRip от GeneralFilm скачать торрент бесплатно




    Мажор (2014) WEB-DLRip от GeneralFilm скачать торрент бесплатно

    Опубликовал: Админ | Дата: 25-01-2016, 12:20 | Просмотров: 85



    Детально о кино
    Русское название в мировом прокате: Мажор
    Создали в: 2014
    Категория жанра: Криминальная драма
    Главный режиссер: Константин Статский

    Актеры
    Павел Прилучный, Карина Разумовская, Дмитрий Шевченко, Денис Шведов, Александр Обласов, Никита Панфилов, Анна Андрусенко, Остап Ступка, Александр Дьяченко, Игорь Жижикин, Заза Чантурия, Дмитрий Гаврилов (II), Марина Дьяконенко, Алла Мартынюк, Саак Дурян

    Сюжет фильма

    Главный герой – Игорь Соколовский – сын высокопоставленного и богатого человека. Имея юридическое образование, Игорь не спешит найти ему применение, прожигая жизнь в ночных клубах с друзьями. Однажды, вступившись за товарища, Игорь ввязывается в драку с полицейским. Замяв историю, отец лишает Игоря всего, отправляя работать в то самое отделение полиции. Поначалу возненавидев свою новую жизнь, Игорь постепенно становится мужчиной, встречает любовь и задаётся целью найти убийцу матери...
    Снималось в: Продюсерский центр Среда
    Время просмотра: 12 x ~ 00: 54: 00
    Перевод текста: Не требуется
    Файл
    Кодек для видео: XviD
    Качество: WEB-DLRip
    Видео: 656х368 (16: 9), 25 fps, ~ 820 kbps avg, 0.136 bit/pixel
    Звук: 48 kHz, MP3, 2 ch, ~ 128 kbps
    МедиаИнфо
    Полное имя : Mazhor.2014.XviD.WEB-DLRip.by.GeneralFilm1.seriya.avi
    Формат : AVI
    Формат/Информация : Audio Video Interleave
    Размер файла : 372 Мбайт
    Продолжительность : 54 м.
    Общий поток : 958 Кбит/сек
    Программа кодирования : VirtualDubMod 1.5.10.3 | www.virtualdub-fr.org || (build 2550/release)
    Библиотека кодирования : VirtualDubMod build 2550/release
    Видео
    Идентификатор : 0
    Формат : MPEG-4 Visual
    Профиль формата : Advanced Simple@L5
    Параметр BVOP формата : 1
    Параметр QPel формата : Нет
    Параметр GMC формата : Без точки перехода
    Параметр матрицы формата : Выборочная
    Идентификатор кодека : XVID
    Идентификатор кодека/Подсказка : XviD
    Продолжительность : 54 м.
    Битрейт : 821 Кбит/сек
    Ширина : 656 пикселей
    Высота : 368 пикселей
    Соотношение сторон : 16: 9
    Частота кадров : 25, 000 кадров/сек
    Цветовое пространство : YUV
    Субдискретизация насыщенности : 4: 2: 0
    Битовая глубина : 8 бит
    Тип развёртки : Прогрессивная
    Метод сжатия : С потерями
    Бит/(Пиксели*Кадры) : 0.136
    Размер потока : 319 Мбайт (86%)
    Библиотека кодирования : XviD 73
    Аудио
    Идентификатор : 1
    Формат : MPEG Audio
    Версия формата : Version 1
    Профиль формата : Layer 3
    Идентификатор кодека : 55
    Идентификатор кодека/Подсказка : MP3
    Продолжительность : 54 м.
    Вид битрейта : Постоянный
    Битрейт : 128 Кбит/сек
    Каналы : 2 канала
    Частота : 48, 0 КГц
    Метод сжатия : С потерями
    Размер потока : 49, 7 Мбайт (13%)
    Выравнивание : Соединение по промежуткам
    Продолжительность промежутка : 40 мс. (1, 00 видеокадр)
    Время предзагрузки промежутка : 504 мс.
    Библиотека кодирования : LAME3.99r
    Залил: vsobbol
    Размер скачиваемого торрента: 4.37 GB (4690509824 Bytes)


    Мажор (2014) WEB-DLRip от GeneralFilm
    загрузка...
    Рейтинг →
     (голосов: 1, оценка 5/5, голосовать можно 1 раз )

    Другие торренты по теме:

  • Мажор - 2 (2016) WEB-DLRip-AVC от ExKinoRay
  • Мажор (2014-2016) WEB-DLRip
  • Мажор - 2 (2016) WEB-DLRip от Files-x
  • Мажор (2016) WEB-DLRip от Generalfilm | КПК
  • Мажор (2014-2016) WEB-DLRip от Generalfilm | КПК


    • Комментарии (0):

      Информация

      Информация

        Посетители, находящиеся в группе Гости, не могут оставлять комментарии в данной новости.

        ↓ Меню



        ↓ Опрос

        А Вы добавили сайт в закладки?
        Да
        Не


        Top 10 за месяц (Фильмы)