.
Авторизация | Регистрация
Хочешь лучшие торренты? Добавь свой email!
Добавить
» » Колония / Colony (2016) WEB-DLRip | OMSKBIRD records скачать торрент бесплатно




    Колония / Colony (2016) WEB-DLRip | OMSKBIRD records скачать торрент бесплатно

    Опубликовал: Админ | Дата: 24-01-2016, 05:00 | Просмотров: 89



    Детально о кино
    Русское название: Колония
    Русское название в мировом прокате: Colony
    Создали в: 2016
    Категория жанра: Фантастика
    Главный режиссер: Хуан Хосе Кампанелла

    Актеры
    Джош Холлоуэй, Сара Уэйн Кэллис, Аэдин Минкс, Чарльз Бэйкер, Тристен Бэнкстон, Том Бейер, Хилти Бауэн, Джонни Канниццаро, Джастин Чу-Кэри, Ной Крафт, Изабелла Крамп, Купер Дж. Фридман и др.

    Сюжет фильма

    Действие разворачивается в недалёком будущем в Лос-Анджелесе, оккупированном злобными пришельцами. Пока захватчики не стремятся к полному уничтожению землян, но устанавливают над нами тотальный контроль. В изменившемся мире человеческая раса делится на два лагеря. Одни подчиняются и приспосабливаются жить под гнётом новой власти. Другие уходят в партизаны, чтобы сопротивляться колонистам.
    В непростой ситуации оказывается главный герой, Уилл Боуман (Джош Холлоуэй), ранее служивший в ФБР.

    Снималось в: США
    Время просмотра: ~ 00: 49: 52 серия
    Перевод текста: Любительский (многоголосый закадровый) |OMSKBIRD records
    Файл
    Кодек для видео: XviD
    Качество фильма: WEB-DLRip
    Информация о видео: XviD, 720x400 (16: 9), 23, 976 fps, ~2000 kbps
    Информация о звуке:
    Информация о звуке rus: AC3, 48 kHz, 6 ch, 384 kbps |OMSKBIRD records
    Информация о звуке eng: AC3, 48 kHz, 6 ch, 384 kbps | original
    Субтитры: Русские, английские
    Семпл
    Релиз:

    Релиз-группа:
    Релиз: Grandfather61 (Skyns61)
    Перевод текста: Никита Коваль
    Роли озвучивали: Анна Тух, Павел Ярощик, Алексей Гнеушев и Владислав Данилов
    Информация о звукеорежиссер: Павел Квентов
    Постер: Ксения Просветова
    Монтаж, работа со звуком : Grandfather61 (Skyns61)
    Список серий:

    01. Pilot
    02. Brave New World - О дивный новый мир
    MediaInfo:

    Общее
    Полное имя : G: FilmsColony.S01.400p.OmskBirdColony.S01E01.400p.WEB-DLRip.Rus.Eng.OmskBird.DD5.1.avi
    Формат : AVI
    Формат/Информация : Audio Video Interleave
    Размер файла : 989 Мбайт
    Продолжительность : 49 м.
    Общий поток : 2785 Кбит/сек
    Программа кодирования : VirtualDubMod 1.5.10.3 (build 2550/release)
    Библиотека кодирования : VirtualDubMod build 2550/release
    Видео
    Идентификатор : 0
    Формат : MPEG-4 Visual
    Профиль формата : Advanced Simple@L5
    Параметр BVOP формата : 1
    Параметр QPel формата : Нет
    Параметр GMC формата : Без точки перехода
    Параметр матрицы формата : Default (MPEG)
    Идентификатор кодека : XVID
    Идентификатор кодека/Подсказка : XviD
    Продолжительность : 49 м.
    Битрейт : 2003 Кбит/сек
    Ширина : 720 пикселей
    Высота : 400 пикселей
    Соотношение сторон : 16: 9
    Частота кадров : 23, 976 (23976/1000) кадра/сек
    Цветовое пространство : YUV
    Субдискретизация насыщенности : 4: 2: 0
    Битовая глубина : 8 бит
    Тип развёртки : Прогрессивная
    Метод сжатия : С потерями
    Бит/(Пиксели*Кадры) : 0.290
    Размер потока : 711 Мбайт (72%)
    Библиотека кодирования : XviD 73
    Аудио #1
    Идентификатор : 1
    Формат : AC-3
    Формат/Информация : Audio Coding 3
    Расширение режима : CM (complete main)
    Параметр Endianness формата : Big
    Идентификатор кодека : 2000
    Продолжительность : 49 м.
    Вид битрейта : Постоянный
    Битрейт : 384 Кбит/сек
    Каналы : 6 каналов
    Расположение каналов : Front: L C R, Side: L R, LFE
    Частота : 48, 0 КГц
    Частота кадров : 31, 250 кадров/сек (1536 spf)
    Метод сжатия : С потерями
    Размер потока : 136 Мбайт (14%)
    Выравнивание : Разделение по промежуткам
    Продолжительность промежутка : 42 мс. (1, 00 видеокадр)
    Время предзагрузки промежутка : 500 мс.
    Аудио #2
    Идентификатор : 2
    Формат : AC-3
    Формат/Информация : Audio Coding 3
    Расширение режима : CM (complete main)
    Параметр Endianness формата : Big
    Идентификатор кодека : 2000
    Продолжительность : 49 м.
    Вид битрейта : Постоянный
    Битрейт : 384 Кбит/сек
    Каналы : 6 каналов
    Расположение каналов : Front: L C R, Side: L R, LFE
    Частота : 48, 0 КГц
    Частота кадров : 31, 250 кадров/сек (1536 spf)
    Метод сжатия : С потерями
    Размер потока : 136 Мбайт (14%)
    Выравнивание : Разделение по промежуткам
    Продолжительность промежутка : 42 мс. (1, 00 видеокадр)
    Время предзагрузки промежутка : 500 мс.
    Скриншоты


    Внимание! Раздача ведётся путём добавления новых серий.

    color=brown
    Внимание! Раздача ведётся путём добавления новых серий; при каждом добавлении создётся новый торрент. Чтобы начать докачку новой серии, пользователям необходимо сделать следующее:
    Остановить скачивание.
    Удалить старый торрент у себя из клиента (старые серии удалять не надо).
    Скачать новый торрент и запустить его у себя в клиенте вместо старого, при этом указать клиенту путь в старую папку куда и должно происходить скачивание новых серий.
    Ваш клиент при этом должен произвести хеширование (проверку) старой папки (если не производит сам - помогите ему сделать это), и будет докачивать только те серии которых у вас ещё нет. Старые серии при этом не удаляются, а продолжают раздаваться!
    Eсли вы уже удалили старые серии, то предотвратить повторную закачку старых серий можно, отжав галочку в соответсвующих местах при запуске нового торрента. По возможности, желательно не удалять старые серии как можно дольше чтобы релизёр не столько продолжал раздавать старые серии, а смог сконцентрироваться на новых.

    Релиз подготовил: skyns61
    Залил: skyn s61

    Онлайн видео Колония


    Размер скачиваемого торрента: 1.78 GB (1916484574 Bytes)

    Колония/Colony (2016) WEB-DLRip | OMSKBIRD records
    загрузка...
    Рейтинг →
     (голосов: 1, оценка 3/5, голосовать можно 1 раз )

    Другие торренты по теме:

  • Колония / Colony (2015) WEBRip 720p | NewStudio
  • Колония / Colony (2016) WEB-DLRip | NewStudio
  • Колония / Colony (2015) WEB-DLRip | BaibaKo
  • Колония / Colony (2015) WEBRip 720p | BaibaKo
  • Колония / Colony (2016) WEB-DLRip | LostFilm
  • Колония / Colony (2015) HDTVRip 720p | Jaskier
  • Колония / Colony (2016) HDTV 720p | Gears Media
  • Колония / Colony (2016) WEB-DL 720p | OMSKBIRD records


    • Комментарии (0):

      Информация

      Информация

        Посетители, находящиеся в группе Гости, не могут оставлять комментарии в данной новости.

        ↓ Меню



        ↓ Опрос

        А Вы добавили сайт в закладки?
        Да
        Не


        Top 10 за месяц (Фильмы)