.
Авторизация | Регистрация
Хочешь лучшие торренты? Добавь свой email!
Добавить
» » Человек в высоком замке / The Man in the High Castle (2015) WEB-DLRip | КПК | LostFilm скачать торрент бесплатно




    Человек в высоком замке / The Man in the High Castle (2015) WEB-DLRip | КПК | LostFilm скачать торрент бесплатно

    Опубликовал: Админ | Дата: 23-01-2016, 05:00 | Просмотров: 232



    • Человек в высоком замке/The Man in the High Castle •
    ? Снималось в: США
    ? Создали в: Amazon Studios, Big Light Productions, Electric Shepherd Productions, Headline Pictures, Picrow, Scott Free Productions
    ? Создали в: 2015
    ? Категория жанра: фантастика, триллер, драма
    ? Главный режиссёр: Дэниэл Персивал, Брэд Андерсон, Карин Кусама
    ?
    Актеры
    Алекса Давалос, Руперт Эванс, Люк Клеинтенк, DJ Куаллс, Джоэль де ла Фуэнте, Руфус Сьюэлл, Кэри-Хироюки Тагава, Карстен Норгаард и др.

    ? Перевод текста: Профессиональный (многоголосый закадровый) от LostFilm


    Описание фильма
    Германия и Япония выиграли Вторую мировую. Америка разделена пополам между победителями, но, разумеется, спустя много лет после поражения (действие разворачивается в 1962-м) сознательные американцы организуют глубоко засекреченное подполье. Занимаются повстанцы в основном распространением странной кинохроники, на которой показана победа в войне союзнических войск. Именно с этими пленками в руках в нейтральную зону между двумя Америками отправляются Джо и Джулс — юноша и девушка, пробующие свои силы в борьбе с режимом.



    ? Качество фильма: WEB-DLRip
    ? Время просмотра: по ~ 00: 59: 00

    ? Тип видео: MP4
    ? Информация о видео кодек: H.264 AVC
    ? Информация о звуке кодек: AAC-LC
    ? Свойства видео: 640x360 (16: 9), 23.976 fps, 500 kbps (0.091 bit/pixel)
    ? Свойства аудио: 48.0 KHz, 2 ch, 128 kbps
    MediaInfo
    General
    Complete name : The.Man.In.The.High.Castle.S01E01.WEB.rus.LostFilm.TV.mp4
    Format : MPEG-4
    Format profile : Base Media
    Codec ID : isom (isom/avc1/iso6)
    File size : 270 MiB
    Duration : 59mn 49s
    Overall bit rate mode : Variable
    Overall bit rate : 632 Kbps
    Encoded date : UTC 2016-01-09 12: 40: 54
    Tagged date : UTC 2016-01-09 12: 40: 54

    Video
    ID : 1
    Format : AVC
    Format/Info : Advanced Video Codec
    Format profile : High@L4.1
    Format settings, CABAC : Yes
    Format settings, ReFrames : 9 frames
    Codec ID : avc1
    Codec ID/Info : Advanced Video Coding
    Duration : 59mn 48s
    Bit rate : 500 Kbps
    Maximum bit rate : 1 603 Kbps
    Width : 640 pixels
    Height : 360 pixels
    Display aspect ratio : 16: 9
    Frame rate mode : Constant
    Frame rate : 23.976 (24000/1001) fps
    Color space : YUV
    Chroma subsampling : 4: 2: 0
    Bit depth : 8 bits
    Scan type : Progressive
    Bits/(Pixel*Frame) : 0.091
    Stream size : 214 MiB (79%)
    Title : 264@GPAC0.5.2-DEV-rev248-g39d5978-master
    Writing library : x264 core 146 r2538 121396c
    Encoding settings : cabac=1/ref=9/deblock=1: -3: -3/analyse=0x3: 0x113/me=umh/subme=11/psy=1/psy_rd=1.00: 0.00/mixed_ref=1/me_range=32/chroma_me=1/trellis=2/8x8dct=1/cqm=0/deadzone=21, 11/fast_pskip=0/chroma_qp_offset=-2/threads=6/lookahead_threads=1/sliced_threads=0/nr=0/decimate=0/interlaced=0/bluray_compat=0/constrained_intra=0/bframes=9/b_pyramid=2/b_adapt=2/b_bias=0/direct=3/weightb=1/open_gop=0/weightp=2/keyint=240/keyint_min=23/scenecut=40/intra_refresh=0/rc=2pass/mbtree=0/bitrate=500/ratetol=1.0/qcomp=0.60/qpmin=0/qpmax=69/qpstep=4/cplxblur=20.0/qblur=0.5/ip_ratio=1.40/pb_ratio=1.30/aq=1: 1.00
    Encoded date : UTC 2016-01-09 12: 40: 54
    Tagged date : UTC 2016-01-09 12: 41: 18

    Audio
    ID : 2
    Format : AAC
    Format/Info : Advanced Audio Codec
    Format profile : LC
    Codec ID : 40
    Duration : 59mn 49s
    Bit rate mode : Variable
    Bit rate : 128 Kbps
    Maximum bit rate : 148 Kbps
    Channel(s) : 2 channels
    Channel positions : Front: L R
    Sampling rate : 48.0 KHz
    Frame rate : 46.875 fps (1024 spf)
    Compression mode : Lossy
    Stream size : 54.8 MiB (20%)
    Encoded date : UTC 2016-01-09 10: 49: 08
    Tagged date : UTC 2016-01-09 12: 41: 18
    Скриншоты

    Залил: ProT1gR

    Онлайн видео Человек в высоком замке


    Размер скачиваемого торрента: 2.12 GB (2275546383 Bytes)

    Человек в высоком замке/The Man in the High Castle (2015) WEB-DLRip | КПК | LostFilm
    загрузка...
    Рейтинг →
     (голосов: 1, оценка 5/5, голосовать можно 1 раз )

    Другие торренты по теме:

  • Человек в высоком замке (1 сезон: 1-2 серии из 10) / The Man in the High Castle / 2015 / ЛМ (OMSKBIRD records) / WEBRip
  • Человек в высоком замке (1 сезон: 1 серия из 12) / The Man in the High Castle / 2015 / ЛД (HamsterStudio) / WEBRip (720p)
  • Человек в высоком замке / The Man in the High Castle (2015) WEBRip 720p | BaibaKo
  • Человек в высоком замке / The Man in the High Castle (2015) WEBRip | NewStudio
  • Человек в высоком замке (1 сезон: 1-3 серия из 12) / The Man in the High Castle / 2015 / ПМ (Baibako) / WEBRip
  • Человек в высоком замке / The Man in the High Castle (2015) WEBRip 720p | BaibaKo
  • Человек в высоком замке / The Man in the High Castle (2015) WEBRip | BaibaKo
  • Человек в высоком замке / The Man in the High Castle (2015) WEBRip 720p | IdeaFilm


    • Комментарии (0):

      Информация

      Информация

        Посетители, находящиеся в группе Гости, не могут оставлять комментарии в данной новости.

        ↓ Меню



        ↓ Опрос

        А Вы добавили сайт в закладки?
        Да
        Не


        Top 10 за месяц (Фильмы)