.
Авторизация | Регистрация
Хочешь лучшие торренты? Добавь свой email!
Добавить
» » Пьяная история / Drunk History (2013) HDTVRip | Hamsterstudio скачать торрент бесплатно




    Пьяная история / Drunk History (2013) HDTVRip | Hamsterstudio скачать торрент бесплатно

    Опубликовал: Админ | Дата: 22-01-2016, 14:07 | Просмотров: 83



    Детально о кино
    Русское название: Пьяная история
    Русское название в мировом прокате: Drunk History
    Создали в: 2013
    Категория жанра: комедия, история
    Главный режиссер: Дерек Уотерс

    Актеры
    Джек Блэк, Стивен Мёрчант, Дейв Грол, Майкл Сера, Вайнона Райдер, Люк Уилсон, Оуэн Уилсон, Джейсон Шварцман, Альфред Молина, Зои Дешанель, Уилл Ферелл, Кристен Уиг

    Сюжет фильма

    Это хулиганский проект вебсайта Funny or Die, который Comedy Central превратил в полноценное телешоу. Рассказчики в разной степени опьянения пытаются пересказать известные исторические события, а различные голливудские знаменитости этот бред инсценируют, открывая рты под авторские реплики.

    Снималось в: США
    Киностудия: Gary Sanchez Productions
    Время просмотра: ~ 00: 21: 00 выпуск
    Перевод текста: Любительский (двухголосый закадровый) Hamsterstudio
    Файл
    Кодек для видео: XviD/MP3
    Качество фильма: HDTVRip
    Информация о видео: MPEG4, XviD, 720x400 (16: 9), 23.976 fps, 1 168 Kbps (0.169 bit/pixel)
    Информация о звуке: MP3, 48.0 KHz, 2 ch, 128 Kbps, CBR
    Скриншоты
    MediaInfo
    General
    Complete name : Drunk.History.s01e01.HDTVRip.HamsterStudio.Org.avi
    Format : AVI
    Format/Info : Audio Video Interleave
    File size : 201 MiB
    Duration : 21mn 29s
    Overall bit rate : 1 305 Kbps
    Writing application : VirtualDubModRus 1.5.10.2 (build 2540/release)
    Writing library : VirtualDubMod build 2540/release
    Video
    ID : 0
    Format : MPEG-4 Visual
    Format profile : Advanced Simple@L5
    Format settings, BVOP : 1
    Format settings, QPel : No
    Format settings, GMC : No warppoints
    Format settings, Matrix : Default (H.263)
    Codec ID : XVID
    Codec ID/Hint : XviD
    Duration : 21mn 29s
    Bit rate : 1 168 Kbps
    Width : 720 pixels
    Height : 400 pixels
    Display aspect ratio : 16: 9
    Frame rate : 23.976 fps
    Color space : YUV
    Chroma subsampling : 4: 2: 0
    Bit depth : 8 bits
    Scan type : Progressive
    Compression mode : Lossy
    Bits/(Pixel*Frame) : 0.169
    Stream size : 180 MiB (89%)
    Writing library : XviD 1.2.1 (UTC 2008-12-04)
    Audio
    ID : 1
    Format : MPEG Audio
    Format version : Version 1
    Format profile : Layer 3
    Mode : Joint stereo
    Mode extension : MS Stereo
    Codec ID : 55
    Codec ID/Hint : MP3
    Duration : 21mn 29s
    Bit rate mode : Constant
    Bit rate : 128 Kbps
    Channel(s) : 2 channels
    Sampling rate : 48.0 KHz
    Compression mode : Lossy
    Stream size : 19.7 MiB (10%)
    Alignment : Aligned on interleaves
    Interleave, duration : 42 ms (1.00 video frame)
    Interleave, preload duration : 504 ms


    Онлайн видео Пьяная история


    Размер скачиваемого торрента: 802.58 MB (841566208 Bytes)

    Пьяная история/Drunk History (2013) HDTVRip | Hamsterstudio
    загрузка...
    Рейтинг →
     (голосов: 1, оценка 5/5, голосовать можно 1 раз )

    Другие торренты по теме:

  • Бухая история / Пьяная история / Drunk History (2013) HDTVRip 720p | Ozz Кубик в Кубе
  • Пьяная история / Drunk History (2013) HDTVRip от HamsterStudio | L2
  • Пьяная история / Drunk History (2014) HDTVRip от HamsterStudio | L2
  • Пьяная история / Drunk History (2014) HDTVRip от HamsterStudio | L2
  • Пьяная история / Drunk History (2014) HDTVRip от HamsterStudio | L2
  • Пьяная история / Drunk History (2015) WEBRip от HamsterStudio | L2
  • Пьяная история / Drunk History (2015) WEBRip от HamsterStudio | L2
  • Пьяная история / Drunk History (2015) WEBRip от HamsterStudio | L2


    • Комментарии (0):

      Информация

      Информация

        Посетители, находящиеся в группе Гости, не могут оставлять комментарии в данной новости.

        ↓ Меню



        ↓ Опрос

        А Вы добавили сайт в закладки?
        Да
        Не


        Top 10 за месяц (Фильмы)