.
Авторизация | Регистрация
Хочешь лучшие торренты? Добавь свой email!
Добавить




Сыновья (1946) DVDRip от New-Team скачать торрент бесплатно

Опубликовал: Админ | Дата: 21-01-2016, 05:00 | Просмотров: 78



Снималось в: СССР
Создали в: Ленфильм, Рижская киностудия
Категория жанра: драма, военный
Создали в: 1946
Время просмотра: 01: 16: 24
Перевод текста: Не требуется
Субтитры подготовлены: нет
Оригинальная аудиодорожка: русский
Главный режиссер: Александр Иванов

Актеры

Олег Жаков, Лидия Смирнова, Николай Чиббиус, Василий Ванин, Анна Петухова, Василий Меркурьев, Лидия Сухаревская, Геннадий Мичурин, Виталий Полицеймако, Григорий Шпигель...
Описание:
В одном из районов оккупированной фашистами Латвии гитлеровцы арестовывают крестьянского парня Яниса. Первый побег завершается новым арестом. На этот раз его задерживает младший брат, ставший полицаем. После следующего побега жена Илга и дочь попадают в концлагерь. И теперь Янис готов на все, чтобы их спасти...



Источник: DVD5 R5
Качество фильма видео: DVDRip
Тип видео видео: AVI
Информация о видео: 688x512 (4: 3), 25 fps, XviD ~ 1560 kbps avg, 0.177 bit/pixel
Информация о звуке: 48 kHz, Dolby Digital AC3 2.0, 192 kbps
Раздача от:
MediaInfo

Общее
Полное имя : Synovya.1946.DVDRip_New-team_by_AVP_Studio.avi
Формат : AVI
Формат/Информация : Audio Video Interleave
Размер файла : 1, 09 Гбайт
Продолжительность : 1 ч. 28 м.
Общий поток : 1761 Кбит/сек
Программа кодирования : VirtualDubModRus 1.5.10.2 (build 2542/release)
Библиотека кодирования : VirtualDubMod build 2542/release
Видео
Идентификатор : 0
Формат : MPEG-4 Visual
Профиль формата : Advanced Simple@L5
Параметр BVOP формата : 1
Параметр QPel формата : Нет
Параметр GMC формата : Без точки перехода
Параметр матрицы формата : Выборочная
Идентификатор кодека : XVID
Идентификатор кодека/Подсказка : XviD
Продолжительность : 1 ч. 28 м.
Битрейт : 1560 Кбит/сек
Ширина : 688 пикселей
Высота : 512 пикселей
Соотношение сторон : 4: 3
Частота кадров : 25, 000 кадров/сек
Цветовое пространство : YUV
Субдискретизация насыщенности : 4: 2: 0
Битовая глубина : 8 бит
Тип развёртки : Прогрессивная
Метод сжатия : С потерями
Бит/(Пиксели*Кадры) : 0.177
Размер потока : 989 Мбайт (89%)
Библиотека кодирования : XviD 73
Аудио
Идентификатор : 1
Формат : AC-3
Формат/Информация : Audio Coding 3
Расширение режима : CM (complete main)
Параметр Endianness формата : Big
Идентификатор кодека : 2000
Продолжительность : 1 ч. 28 м.
Вид битрейта : Постоянный
Битрейт : 192 Кбит/сек
Каналы : 2 канала
Расположение каналов : Front: L R
Частота : 48, 0 КГц
Битовая глубина : 16 бит
Метод сжатия : С потерями
Размер потока : 122 Мбайт (11%)
Выравнивание : Разделение по промежуткам
Продолжительность промежутка : 40 мс. (1, 00 видеокадр)
Время предзагрузки промежутка : 500 мс

Скриншоты



Залил: AVPStudio

Онлайн видео Сыновья (1946) DVDRip от New


Размер скачиваемого торрента: 1.09 GB (1170577408 Bytes)

Сыновья (1946) DVDRip от New-Team
загрузка...
Рейтинг →
 (голосов: 1, оценка 4/5, голосовать можно 1 раз )

Другие торренты по теме:

  • Отец и сыновья / Pre et fils (2003) DVDRip от Киномагия | P
  • Сыновья Большой Медведицы / Die Sohne der grossen Barin (1966) DVDRip-AVC
  • Сыновья Кэти Элдер / The Sons of Katie Elder (1965) DVDRip от ClubTorrent | L
  • Сыновья пустыни / Sons of the Desert (1933) DVDRip | P1
  • Сыновья (1946) DVDRip от New-Team


    • Комментарии (0):

      Информация

      Информация

        Посетители, находящиеся в группе Гости, не могут оставлять комментарии в данной новости.

        ↓ Меню



        ↓ Опрос

        А Вы добавили сайт в закладки?
        Да
        Не


        Top 10 за месяц (Фильмы)