.
Авторизация | Регистрация
Хочешь лучшие торренты? Добавь свой email!
Добавить
» » Пятьдесят на пятьдесят (1972) DVDRip от New-Team скачать торрент бесплатно




    Пятьдесят на пятьдесят (1972) DVDRip от New-Team скачать торрент бесплатно

    Опубликовал: Админ | Дата: 21-01-2016, 05:00 | Просмотров: 139



    Снималось в: СССР
    Создали в: Мосфильм
    Категория жанра: детектив
    Создали в: 1972
    Время просмотра: 01: 27: 05
    Перевод текста: не требуется
    Оригинальная аудиодорожка: русский
    Субтитры подготовлены: нет
    Главный режиссер: Александр Файнциммер

    Актеры

    Василий Лановой, Ирина Скобцева, Владимир Осенев, Игорь Ледогоров, Наталья Величко, Михаил Погоржельский, Геннадий Юдин, Николай Волков...
    Описание:
    Совместная операция американской и английской разведок по сбору информации о крупном научном открытии в Москве терпит крах. Советскому разведчику Волгину удается разгадать хитроумный план и вычислить вражеского агента…



    Исходник: DVD5 R5
    Тип релиза: DVDRip
    Контейнер: AVI
    Информация о видео: 688x320 (2, 2: 1), 25 fps, XviD ~ 2194 kbps avg, 0.399 bit/pixel
    Информация о звуке: 48 kHz, Dolby AC3 2.0, 192 kbps
    MediaInfo

    Общее
    Полное имя : Pyat;desyat.na.pyat;desyat.1972.DVDRip_Youtracker_by_AVP Studio.avi
    Формат : AVI
    Формат/Информация : Audio Video Interleave
    Размер файла : 1, 46 Гбайт
    Продолжительность : 1 ч. 27 м.
    Общий поток : 2396 Кбит/сек
    Программа кодирования : VirtualDubModRus 1.5.10.2 (build 2542/release)
    Библиотека кодирования : VirtualDubMod build 2542/release
    Видео
    Идентификатор : 0
    Формат : MPEG-4 Visual
    Профиль формата : Advanced Simple@L5
    Параметр BVOP формата : 1
    Параметр QPel формата : Нет
    Параметр GMC формата : Без точки перехода
    Параметр матрицы формата : Выборочная
    Идентификатор кодека : XVID
    Идентификатор кодека/Подсказка : XviD
    Продолжительность : 1 ч. 27 м.
    Битрейт : 2194 Кбит/сек
    Ширина : 688 пикселей
    Высота : 320 пикселей
    Соотношение сторон : 2, 2: 1
    Частота кадров : 25, 000 кадров/сек
    Цветовое пространство : YUV
    Субдискретизация насыщенности : 4: 2: 0
    Битовая глубина : 8 бит
    Тип развёртки : Прогрессивная
    Метод сжатия : С потерями
    Бит/(Пиксели*Кадры) : 0.399
    Размер потока : 1, 33 Гбайт (92%)
    Библиотека кодирования : XviD 65
    Аудио
    Идентификатор : 1
    Формат : AC-3
    Формат/Информация : Audio Coding 3
    Расширение режима : CM (complete main)
    Идентификатор кодека : 2000
    Продолжительность : 1 ч. 27 м.
    Вид битрейта : Постоянный
    Битрейт : 192 Кбит/сек
    Каналы : 2 канала
    Расположение каналов : Front: L R
    Частота : 48, 0 КГц
    Битовая глубина : 16 бит
    Метод сжатия : С потерями
    Размер потока : 120 Мбайт (8%)
    Выравнивание : Разделение по промежуткам
    Продолжительность промежутка : 40 мс. (1, 00 видеокадр)
    Время предзагрузки промежутка : 500 мс

    Скриншоты



    Залил: AVPStudio

    Онлайн видео Пятьдесят на пятьдесят (1972) DVDRip от New


    Размер скачиваемого торрента: 1.46 GB (1564651520 Bytes)

    Пятьдесят на пятьдесят (1972) DVDRip от New-Team
    загрузка...
    Рейтинг →
     (голосов: 1, оценка 4/5, голосовать можно 1 раз )

    Другие торренты по теме:

  • 50х50 / Пятьдесят на пятьдесят / Фифти-фифти (1989-2000) TVRip скачать через торрент бесплатно
  • Пятьдесят на пятьдесят / Fifty / Fifty (1992) DVDRip | P
  • Пятьдесят на пятьдесят (1972) DVDRip-AVC от New-Team
  • Пятьдесят на пятьдесят / 1972 / РУ / DVDRip (AVC)
  • Эрика Леонард Джеймс - Пятьдесят оттенков серого (2013) MP3
  • Эрика Леонард Джеймс - На пятьдесят оттенков темнее (2013) MP3
  • Эрика Леонард Джеймс - Пятьдесят оттенков. Трилогия (2013) M4B
  • Пятьдесят оттенков серого / Fifty Shades of Grey (2015) HD 1080p | Трейлер


    • Комментарии (0):

      Информация

      Информация

        Посетители, находящиеся в группе Гости, не могут оставлять комментарии в данной новости.

        ↓ Меню



        ↓ Опрос

        А Вы добавили сайт в закладки?
        Да
        Не


        Top 10 за месяц (Фильмы)