.
Авторизация | Регистрация
Хочешь лучшие торренты? Добавь свой email!
Добавить
» » Яблоко раздора (1962) SATRip от New-Team скачать торрент бесплатно




    Яблоко раздора (1962) SATRip от New-Team скачать торрент бесплатно

    Опубликовал: Админ | Дата: 21-01-2016, 05:00 | Просмотров: 111



    Снималось в: СССР
    Создали в: Мосфильм
    Категория жанра: комедия
    Создали в: 1962
    Время просмотра: 01: 28: 29
    Перевод текста: не требуется
    Оригинальная аудиодорожка: русский
    Субтитры подготовлены: нет
    Главный режиссер: Валентин Плучек

    Актеры

    Борис Тенин, Евгений Весник, Татьяна Пельтцер, Владимир Лепко, Анатолий Папанов, Евгений Супонев, Лилия Шарапова, Ольга Аросева, Виктор Шахов, Георгий Иванов (II), Александр Козубский, Виктор Байков, Андрей Крюков, Владимир Дорофеев, Олег Солюс, Анатолий Кубацкий, Николай Яковченко, Светлана Харитонова, Нина Беляева, Александр Машовец...
    Описание:
    Председатель благополучного колхоза Илья Руденко приготовился к торжественной встрече своего знаменитого земляка полковника в отставке Коваля. Приехав в Затишье отдохнуть, бывший полковник был удивлен странному подходу Ильи к коллективному благополучию. А когда председатель стал готовить весь урожай яблоневого сада для отправки на Север, чтобы продать там втридорога, Коваль сказал свое слово жестко и однозначно — и получил такую же однозначную поддержку у всех жителей Затишья…



    Исходник: DVB
    Тип релиза: SATRip
    Контейнер: AVI
    Информация о видео: 640x480 (4: 3), 25 fps, XviD ~ 1040 kbps avg, 0.135 bit/pixel
    Информация о звуке: 48 kHz, MP3 2.0, 128 kbps
    Раздача от:
    MediaInfo

    Общее
    Полное имя : Jabloko.razdora.1962.SATRip-745_New-team_by_AVP_Studio.avi
    Формат : AVI
    Формат/Информация : Audio Video Interleave
    Размер файла : 745 Мбайт
    Продолжительность : 1 ч. 28 м.
    Общий поток : 1178 Кбит/сек
    Программа кодирования : VirtualDubModRus 1.5.10.2 (build 2542/release)
    Библиотека кодирования : VirtualDubMod build 2542/release
    Видео
    Идентификатор : 0
    Формат : MPEG-4 Visual
    Профиль формата : Advanced Simple@L5
    Параметр BVOP формата : 1
    Параметр QPel формата : Нет
    Параметр GMC формата : Без точки перехода
    Параметр матрицы формата : Выборочная
    Идентификатор кодека : XVID
    Идентификатор кодека/Подсказка : XviD
    Продолжительность : 1 ч. 28 м.
    Битрейт : 1040 Кбит/сек
    Ширина : 640 пикселей
    Высота : 480 пикселей
    Соотношение сторон : 4: 3
    Частота кадров : 25, 000 кадров/сек
    Цветовое пространство : YUV
    Субдискретизация насыщенности : 4: 2: 0
    Битовая глубина : 8 бит
    Тип развёртки : Прогрессивная
    Метод сжатия : С потерями
    Бит/(Пиксели*Кадры) : 0.135
    Размер потока : 658 Мбайт (88%)
    Библиотека кодирования : XviD 73
    Аудио
    Идентификатор : 1
    Формат : MPEG Audio
    Версия формата : Version 1
    Профиль формата : Layer 3
    Идентификатор кодека : 55
    Идентификатор кодека/Подсказка : MP3
    Продолжительность : 1 ч. 28 м.
    Вид битрейта : Постоянный
    Битрейт : 128 Кбит/сек
    Каналы : 2 канала
    Частота : 48, 0 КГц
    Метод сжатия : С потерями
    Размер потока : 81, 0 Мбайт (11%)
    Выравнивание : Соединение по промежуткам
    Продолжительность промежутка : 40 мс. (1, 00 видеокадр)
    Время предзагрузки промежутка : 504 мс.
    Библиотека кодирования : LAME3.99r
    Залил: AVPStudio

    Онлайн видео Яблоко раздора (1962) SATRip от New


    Размер скачиваемого торрента: 745.29 MB (781490176 Bytes)


    Яблоко раздора (1962) SATRip от New-Team
    загрузка...
    Рейтинг →
     (голосов: 1, оценка 5/5, голосовать можно 1 раз )

    Другие торренты по теме:

  • Яблоко в реке / Abols upe (Ābols upē) / 1976 / ПМ, СТ / DVDRip
  • Сборник рассказов - Адамово яблоко (2017) MP3


    • Комментарии (0):

      Информация

      Информация

        Посетители, находящиеся в группе Гости, не могут оставлять комментарии в данной новости.

        ↓ Меню



        ↓ Опрос

        А Вы добавили сайт в закладки?
        Да
        Не


        Top 10 за месяц (Фильмы)