.
Авторизация | Регистрация
Хочешь лучшие торренты? Добавь свой email!
Добавить
» » Метеорит (2015) HDTVRip от GeneralFilm скачать торрент бесплатно




    Метеорит (2015) HDTVRip от GeneralFilm скачать торрент бесплатно

    Опубликовал: Админ | Дата: 20-01-2016, 12:25 | Просмотров: 115



    Детально о кино
    Русское название в мировом прокате: Метеорит
    Создали в: 2015
    Категория жанра: Детектив, мистика
    Главный режиссер: Александр Даруга

    Актеры
    Константин Стрельников, Светлана Иванова, Максим Литовченко, Павел Кузьмин, Анна Миклош, Дмитрий Астрахан, Михаил Горевой, Алексей Тимошкин, Юрий Ваксман, Марат Гибадуллин, Анзор Камариддинов, Андрей Багиров, Даниил Филенко (II), Роман Колотухин, Евгений Мундум

    Сюжет фильма

    Московский опер-розыскник Леонид Жаров (Константин Стрельников) приезжает в маленький городок Безреченск, чтобы по заданию руководства расследовать массовое исчезновение жителей города. Ведь за последний год в Безреченске бесследно исчезли двадцать пять человек, и с каждым днем количество пропавших растет. Местные жители связывают загадочные события с падением метеорита возле старых рудников. Сильнейший взрыв тряхнул весь город, и именно после него и началась вся эта чертовщина. Но Жаров не верит в чудеса, инопланетян и чертей. Он верит в логику и здравый смысл, поэтому общается с родственниками пропавших, пытаясь найти общие обстоятельства загадочных исчезновений. Однако никаких параллелей обнаружить не удается. Никаких свидетелей тоже нет. Расследование продвигается с большим трудом еще и от того, что местные стражи порядка весьма неохотно помогают Жарову, с самого начала встретив столичного гостя в штыки. Приезжий профессор уфологии (Дмитрий Астрахан), который изучает место падения метеорита, убежден, что здесь потерпел крушение инопланетный корабль, а жителей Безреченска забрали инопланетяне. Жаров пытается спорить с ученым, но тот на полном серьезе заявляет, что у него уже был контакт с этими инопланетянами… Жаров начинает сторониться сумасшедшего профессора. Масла в огонь подливает местная экстрасенс Алёна (Светлана Иванова), которую наняли для поисков родственники пропавших. Куда бы Жаров ни пошел, везде он натыкается на ведьму Алёну. У нее, как оказалось, тоже был контакт с пропавшими. Алёна считает, что они находятся где-то в лесу. И у Жарова тоже есть версия, что люди ушли из города по собственной воле. Кто станет следующей жертвой, к чему приведут поиски пропавших, кто на самом деле виновник исчезновений людей на месте падения метеорита и как сложится дальнейшая жизнь Леонида и Алёны?
    Снималось в: Россия, Кинокомпания Пирамида по заказу НТВ
    Время просмотра: 8 x ~ 00: 45: 00
    Перевод текста: Не требуется
    Файл
    Качество фильма: HDTVRip
    Информация о видео: XviD, ~ 1000 Кбит/с, 656х368
    Информация о звуке: MP3, 2 ch, 128 Кбит/с
    МедиаИнфо
    Полное имя : Meteorit.2015.XviD.HDTVRip.by.GeneralFilm1.seriya.avi
    Формат : AVI
    Формат/Информация : Audio Video Interleave
    Размер файла : 372 Мбайт
    Продолжительность : 45 м.
    Общий поток : 1145 Кбит/сек
    Программа кодирования : VirtualDubMod 1.5.10.3 | www.virtualdub-fr.org || (build 2550/release)
    Библиотека кодирования : VirtualDubMod build 2550/release
    Видео
    Идентификатор : 0
    Формат : MPEG-4 Visual
    Профиль формата : Advanced Simple@L5
    Параметр BVOP формата : 1
    Параметр QPel формата : Нет
    Параметр GMC формата : Без точки перехода
    Параметр матрицы формата : Выборочная
    Идентификатор кодека : XVID
    Идентификатор кодека/Подсказка : XviD
    Продолжительность : 45 м.
    Битрейт : 1007 Кбит/сек
    Ширина : 656 пикселей
    Высота : 368 пикселей
    Соотношение сторон : 16: 9
    Частота кадров : 25, 000 кадров/сек
    Цветовое пространство : YUV
    Субдискретизация насыщенности : 4: 2: 0
    Битовая глубина : 8 бит
    Тип развёртки : Прогрессивная
    Метод сжатия : С потерями
    Бит/(Пиксели*Кадры) : 0.167
    Размер потока : 327 Мбайт (88%)
    Библиотека кодирования : XviD 73
    Аудио
    Идентификатор : 1
    Формат : MPEG Audio
    Версия формата : Version 1
    Профиль формата : Layer 3
    Идентификатор кодека : 55
    Идентификатор кодека/Подсказка : MP3
    Продолжительность : 45 м.
    Вид битрейта : Постоянный
    Битрейт : 128 Кбит/сек
    Каналы : 2 канала
    Частота : 48, 0 КГц
    Метод сжатия : С потерями
    Размер потока : 41, 6 Мбайт (11%)
    Выравнивание : Соединение по промежуткам
    Продолжительность промежутка : 40 мс. (1, 00 видеокадр)
    Время предзагрузки промежутка : 504 мс.
    Библиотека кодирования : LAME3.99r
    Залил: vsobbol

    Онлайн видео Хроники Шаннары


    Размер скачиваемого торрента: 2.91 GB (3120652288 Bytes)


    Метеорит (2015) HDTVRip от GeneralFilm
    загрузка...
    Рейтинг →
     (голосов: 1, оценка 5/5, голосовать можно 1 раз )

    Другие торренты по теме:

  • Метеорит (2015) HDTVRip-AVC от Files-x


    • Комментарии (0):

      Информация

      Информация

        Посетители, находящиеся в группе Гости, не могут оставлять комментарии в данной новости.

        ↓ Меню



        ↓ Опрос

        А Вы добавили сайт в закладки?
        Да
        Не


        Top 10 за месяц (Фильмы)