.
Авторизация | Регистрация
Хочешь лучшие торренты? Добавь свой email!
Добавить
» » 007: СПЕКТР / Spectre (2015) HDRip | КПК | Чистый звук скачать торрент бесплатно




    007: СПЕКТР / Spectre (2015) HDRip | КПК | Чистый звук скачать торрент бесплатно

    Опубликовал: Админ | Дата: 20-01-2016, 05:01 | Просмотров: 119


    • 007: СПЕКТР/Spectre •
    ? Снималось в: Великобритания, США
    ? Создали в: B24, Columbia Pictures, Danjaq
    ? Создали в: 2015
    ? Категория жанра: боевик, триллер, приключения
    ? Главный режиссёр: Сэм Мендес
    ?
    Актеры
    Дэниэл Крэйг, Кристоф Вальц, Леа Сейду, Рэйф Файнс, Моника Беллуччи, Бен Уишоу, Наоми Харрис, Дэйв Батиста, Эндрю Скотт, Рори Киннер


    ? Перевод текста: Дублированный (Чистый звук)


    Описание фильма
    Зашифрованное послание из неизвестного источника выводит Бонда на след зловещей глобальной организации под кодовым названием СПЕКТР, в то время как М пытается спасти секретную разведывательную службу от ликвидации.



    ? Качество фильма: HDRip
    ? Время просмотра: 02: 28: 07

    ? Тип видео: MP4
    ? Информация о видео кодек: H.264
    ? Информация о звуке кодек: AAC-LC
    ? Свойства видео: 640x268 (2: 39: 1), 23.976 fps, 500 kbps (0.122 bit/pixel)
    ? Свойства аудио: 48.0 KHz, 2 ch, 128 kbps
    MediaInfo
    General
    Complete name : 007 СПЕКТР.2015.HDRip.mp4
    Format : MPEG-4
    Format profile : Base Media
    Codec ID : isom (isom/avc1/iso6)
    File size : 669 MiB
    Duration : 2h 28mn
    Overall bit rate mode : Variable
    Overall bit rate : 632 Kbps
    Encoded date : UTC 2016-01-19 16: 28: 54
    Tagged date : UTC 2016-01-19 16: 28: 54

    Video
    ID : 1
    Format : AVC
    Format/Info : Advanced Video Codec
    Format profile : High@L4.1
    Format settings, CABAC : Yes
    Format settings, ReFrames : 9 frames
    Codec ID : avc1
    Codec ID/Info : Advanced Video Coding
    Duration : 2h 28mn
    Bit rate : 500 Kbps
    Maximum bit rate : 2 377 Kbps
    Width : 640 pixels
    Height : 268 pixels
    Display aspect ratio : 2.40: 1
    Frame rate mode : Constant
    Frame rate : 23.976 (24000/1001) fps
    Color space : YUV
    Chroma subsampling : 4: 2: 0
    Bit depth : 8 bits
    Scan type : Progressive
    Bits/(Pixel*Frame) : 0.122
    Stream size : 530 MiB (79%)
    Title : 264@GPAC0.5.2-DEV-rev248-g39d5978-master
    Writing library : x264 core 146 r2538 121396c
    Encoding settings : cabac=1/ref=9/deblock=1: -3: -3/analyse=0x3: 0x113/me=umh/subme=11/psy=1/psy_rd=1.00: 0.00/mixed_ref=1/me_range=32/chroma_me=1/trellis=2/8x8dct=1/cqm=0/deadzone=21, 11/fast_pskip=0/chroma_qp_offset=-2/threads=6/lookahead_threads=1/sliced_threads=0/nr=0/decimate=0/interlaced=0/bluray_compat=0/constrained_intra=0/bframes=9/b_pyramid=2/b_adapt=2/b_bias=0/direct=3/weightb=1/open_gop=0/weightp=2/keyint=240/keyint_min=23/scenecut=40/intra_refresh=0/rc=2pass/mbtree=0/bitrate=500/ratetol=1.0/qcomp=0.60/qpmin=0/qpmax=69/qpstep=4/cplxblur=20.0/qblur=0.5/ip_ratio=1.40/pb_ratio=1.30/aq=1: 1.00
    Encoded date : UTC 2016-01-19 16: 28: 54
    Tagged date : UTC 2016-01-19 16: 29: 32

    Audio
    ID : 2
    Format : AAC
    Format/Info : Advanced Audio Codec
    Format profile : LC
    Codec ID : 40
    Duration : 2h 28mn
    Bit rate mode : Variable
    Bit rate : 128 Kbps
    Maximum bit rate : 152 Kbps
    Channel(s) : 2 channels
    Channel positions : Front: L R
    Sampling rate : 48.0 KHz
    Frame rate : 46.875 fps (1024 spf)
    Compression mode : Lossy
    Stream size : 136 MiB (20%)
    Encoded date : UTC 2016-01-19 07: 48: 50
    Tagged date : UTC 2016-01-19 16: 29: 32
    Скриншоты

    Залил: ProT1gR

    Онлайн видео 007: СПЕКТР


    Размер скачиваемого торрента: 669.27 MB (701784076 Bytes)

    007: СПЕКТР/Spectre (2015) HDRip | КПК | Чистый звук
    загрузка...
    Рейтинг →
     (голосов: 1, оценка 3/5, голосовать можно 1 раз )

    Другие торренты по теме:

  • OST - 007: Спектр / Spectre (2015) MP3
  • OST - 007: Спектр / Spectre (2015) FLAC
  • 007: СПЕКТР / Spectre (2015) HDRip от Scarabey | Чистый звук
  • 007: СПЕКТР / Spectre / 2015 / ДБ (Line) / HDRip
  • 007: СПЕКТР / Spectre / 2015 / АП (Чадов), СТ / HDRip
  • 007: СПЕКТР / Spectre (2015) BDRip-AVC | iPad | Чистый звук
  • 007: СПЕКТР / Spectre (2015) BDRemux 1080p | D, A | Лицензия
  • 007: СПЕКТР / Spectre (2015) BDRip-AVC от ExKinoRay | D, A | Лицензия


    • Комментарии (0):

      Информация

      Информация

        Посетители, находящиеся в группе Гости, не могут оставлять комментарии в данной новости.

        ↓ Меню



        ↓ Опрос

        А Вы добавили сайт в закладки?
        Да
        Не


        Top 10 за месяц (Фильмы)