.
Авторизация | Регистрация
Хочешь лучшие торренты? Добавь свой email!
Добавить
» » Ужастики / Goosebumps (2015) BDRip | КПК | iTunes скачать торрент бесплатно




    Ужастики / Goosebumps (2015) BDRip | КПК | iTunes скачать торрент бесплатно

    Опубликовал: Админ | Дата: 19-01-2016, 05:01 | Просмотров: 57


    • Ужастики/Goosebumps •
    ? Снималось в: США, Австралия
    ? Создали в: Columbia Pictures, LStar Capital, Original Film, Scholastic Entertainment, Sony Pictures Animation, Sony Pictures Entertainment (SPE), Village Roadshow Pictures
    ? Создали в: 2015
    ? Категория жанра: фэнтези, комедия, приключения
    ? Главный режиссёр: Роб Леттерман
    ?
    Актеры
    Дилан Миннетт, Одейя Раш, Эми Райан, Райан Ли, Джиллиан Белл, Джек Блэк, Кен Марино, Холстон Сейдж, Стивен Крюгер, Кит А. Болден

    ? Перевод текста: Дублированный (iTunes)


    Описание фильма
    Кошмары бывают разные. Вечно голодные оборотни, плохо воспитанные зомби, агрессивные садовые гномы и даже гигантский неуравновешенный снежный человек… Все эти фантастические монстры и монстрики многие годы магическим образом удерживались на страницах знаменитых бестселлеров Ужастики, пока по воле случая их не выпустили на свободу в реальный мир.



    ? Качество фильма: BDRip (исходник BDRemux 1080p)
    ? Время просмотра: 01: 43: 16

    ? Тип видео: MP4
    ? Информация о видео кодек: H.264
    ? Информация о звуке кодек: AAC-LC
    ? Свойства видео: 640x268 (2: 39: 1), 23.976 fps, 500 kbps (0.122 bit/pixel)
    ? Свойства аудио: 48.0 KHz, 2 ch, 128 kbps
    MediaInfo
    General
    Complete name : Ужастики.2015.BDRip.mp4
    Format : MPEG-4
    Format profile : Base Media
    Codec ID : isom (isom/avc1/iso6)
    File size : 467 MiB
    Duration : 1h 43mn
    Overall bit rate mode : Variable
    Overall bit rate : 632 Kbps
    Encoded date : UTC 2016-01-17 20: 06: 00
    Tagged date : UTC 2016-01-17 20: 06: 00

    Video
    ID : 1
    Format : AVC
    Format/Info : Advanced Video Codec
    Format profile : High@L4.1
    Format settings, CABAC : Yes
    Format settings, ReFrames : 9 frames
    Codec ID : avc1
    Codec ID/Info : Advanced Video Coding
    Duration : 1h 43mn
    Bit rate : 500 Kbps
    Maximum bit rate : 1 700 Kbps
    Width : 640 pixels
    Height : 268 pixels
    Display aspect ratio : 2.40: 1
    Frame rate mode : Constant
    Frame rate : 23.976 (24000/1001) fps
    Color space : YUV
    Chroma subsampling : 4: 2: 0
    Bit depth : 8 bits
    Scan type : Progressive
    Bits/(Pixel*Frame) : 0.122
    Stream size : 369 MiB (79%)
    Title : 264@GPAC0.5.2-DEV-rev248-g39d5978-master
    Writing library : x264 core 146 r2538 121396c
    Encoding settings : cabac=1/ref=9/deblock=1: -3: -3/analyse=0x3: 0x113/me=umh/subme=11/psy=1/psy_rd=1.00: 0.00/mixed_ref=1/me_range=32/chroma_me=1/trellis=2/8x8dct=1/cqm=0/deadzone=21, 11/fast_pskip=0/chroma_qp_offset=-2/threads=6/lookahead_threads=1/sliced_threads=0/nr=0/decimate=0/interlaced=0/bluray_compat=0/constrained_intra=0/bframes=9/b_pyramid=2/b_adapt=2/b_bias=0/direct=3/weightb=1/open_gop=0/weightp=2/keyint=240/keyint_min=23/scenecut=40/intra_refresh=0/rc=2pass/mbtree=0/bitrate=500/ratetol=1.0/qcomp=0.60/qpmin=0/qpmax=69/qpstep=4/cplxblur=20.0/qblur=0.5/ip_ratio=1.40/pb_ratio=1.30/aq=1: 1.00
    Encoded date : UTC 2016-01-17 20: 06: 00
    Tagged date : UTC 2016-01-17 20: 06: 25

    Audio
    ID : 2
    Format : AAC
    Format/Info : Advanced Audio Codec
    Format profile : LC
    Codec ID : 40
    Duration : 1h 43mn
    Bit rate mode : Variable
    Bit rate : 128 Kbps
    Maximum bit rate : 160 Kbps
    Channel(s) : 2 channels
    Channel positions : Front: L R
    Sampling rate : 48.0 KHz
    Frame rate : 46.875 fps (1024 spf)
    Compression mode : Lossy
    Stream size : 94.5 MiB (20%)
    Encoded date : UTC 2016-01-17 16: 00: 13
    Tagged date : UTC 2016-01-17 20: 06: 25
    Скриншоты

    Залил: ProT1gR

    Онлайн видео Ужастики


    Размер скачиваемого торрента: 466.67 MB (489339937 Bytes)

    Ужастики/Goosebumps (2015) BDRip | КПК | iTunes
    загрузка...
    Рейтинг →
     (голосов: 1, оценка 5/5, голосовать можно 1 раз )

    Другие торренты по теме:

  • Ужастики / Goosebumps (2015) CAMRip | L1
  • Ужастики / Goosebumps (2015) WEBRip | L2
  • Ужастики / Goosebumps (2015) WEBRip 720p | Чистый звук
  • Ужастики / Goosebumps (2015) WEB-DLRip | iTunes
  • Ужастики / Goosebumps (2015) BDRip 720p | iTunes
  • Ужастики / Goosebumps (2015) BDRip 1080p | iTunes
  • Ужастики / Goosebumps (2015) BDRip 720p | iTunes
  • Ужастики / Goosebumps (2015) HDRip | iTunes


    • Комментарии (0):

      Информация

      Информация

        Посетители, находящиеся в группе Гости, не могут оставлять комментарии в данной новости.

        ↓ Меню



        ↓ Опрос

        А Вы добавили сайт в закладки?
        Да
        Не


        Top 10 за месяц (Фильмы)