.
Авторизация | Регистрация
Хочешь лучшие торренты? Добавь свой email!
Добавить
» » Увлечение Стеллы / How Stella Got Her Groove Back (1998) DVDRip от New-Team скачать торрент бесплатно




    Увлечение Стеллы / How Stella Got Her Groove Back (1998) DVDRip от New-Team скачать торрент бесплатно

    Опубликовал: Админ | Дата: 19-01-2016, 05:01 | Просмотров: 68



    Снималось в: США
    Категория жанра: драма, мелодрама
    Создали в: 1998
    Время просмотра: 01: 59: 23
    Перевод текста: Профессиональный (многоголосый закадровый)
    Оригинальная аудиодорожка: нет
    Субтитры подготовлены: нет
    Главный режиссер: Кевин Родни Салливан/Kevin Rodney Sullivan

    Актеры
    Анжела Бассетт/Angela Bassett /, Тэй Диггз/Taye Diggs /, Вупи Голдберг/Whoopi Goldberg /, Реджина Кинг/Regina King /, Сьюззанн Дуглас/Suzzanne Douglas...
    Описание:
    Стелла Пэйн, преуспевающая бизнес-леди, давно забыла, когда в последний раз была в отпуске. Ее лучшая подруга Делайла решает исправить такое ненормальное положение дел. И поддавшись спонтанному порыву, они отправляются на Ямайку к прекрасному голубому морю и белому песку.
    Романтической настроение витает здесь в воздухе. И вскоре Стелла знакомится с молодым чернокожим красавцем. Парень — предел всех мечтаний. И Стелла с удивлением понимает, что ее сердце открыто для любви. Единственное, что смущает, — 20-летняя разница в возрасте...



    Исходник: DVD9 R5
    Тип релиза: DVDRip
    Контейнер: AVI
    Информация о видео: 624x336 (1, 857: 1), 25 fps, XviD ~ 735 kbps avg, 0.140 bit/pixel
    Информация о звуке: 48 kHz, Dolby MP3 2.0, 128 kbps
    MediaInfo

    Общее
    Полное имя : Uvlechenija.Stelly.1998.DVDRip-745_Youtracker_by_AVP Studio.avi
    Формат : AVI
    Формат/Информация : Audio Video Interleave
    Размер файла : 745 Мбайт
    Продолжительность : 1 ч. 59 м.
    Общий поток : 873 Кбит/сек
    Программа кодирования : VirtualDubMod 1.5.10.3 | www.virtualdub-fr.org || (build 2550/release)
    Библиотека кодирования : VirtualDubMod build 2550/release
    Видео
    Идентификатор : 0
    Формат : MPEG-4 Visual
    Профиль формата : Advanced Simple@L5
    Параметр BVOP формата : 1
    Параметр QPel формата : Нет
    Параметр GMC формата : Без точки перехода
    Параметр матрицы формата : Выборочная
    Идентификатор кодека : XVID
    Идентификатор кодека/Подсказка : XviD
    Продолжительность : 1 ч. 59 м.
    Битрейт : 735 Кбит/сек
    Ширина : 624 пикселя
    Высота : 336 пикселей
    Соотношение сторон : 1, 857
    Частота кадров : 25, 000 кадров/сек
    Цветовое пространство : YUV
    Субдискретизация насыщенности : 4: 2: 0
    Битовая глубина : 8 бит
    Тип развёртки : Прогрессивная
    Метод сжатия : С потерями
    Бит/(Пиксели*Кадры) : 0.140
    Размер потока : 627 Мбайт (84%)
    Библиотека кодирования : XviD 65
    Аудио
    Идентификатор : 1
    Формат : MPEG Audio
    Версия формата : Version 1
    Профиль формата : Layer 3
    Идентификатор кодека : 55
    Идентификатор кодека/Подсказка : MP3
    Продолжительность : 1 ч. 59 м.
    Вид битрейта : Постоянный
    Битрейт : 128 Кбит/сек
    Каналы : 2 канала
    Частота : 48, 0 КГц
    Метод сжатия : С потерями
    Размер потока : 109 Мбайт (15%)
    Выравнивание : Соединение по промежуткам
    Продолжительность промежутка : 40 мс. (1, 00 видеокадр)
    Время предзагрузки промежутка : 504 мс.
    Библиотека кодирования : L3.99r
    Залил: AVPStudio

    Онлайн видео Увлечение Стеллы


    Размер скачиваемого торрента: 745.06 MB (781248512 Bytes)


    Увлечение Стеллы/How Stella Got Her Groove Back (1998) DVDRip от New-Team
    загрузка...
    Рейтинг →
     (голосов: 1, оценка 5/5, голосовать можно 1 раз )

    Другие торренты по теме:

  • Увлечение Стеллы / How Stella Got Her Groove Back (1998) WEB-DLRip 720p | Р
  • Увлечение Стеллы / How Stella Got Her Groove Back (1998) DVD5 от Youtracker | Сжатый
  • Увлечение Стеллы / How Stella Got Her Groove Back (1998) DVDRip-AVC от New-Team


    • Комментарии (0):

      Информация

      Информация

        Посетители, находящиеся в группе Гости, не могут оставлять комментарии в данной новости.

        ↓ Меню



        ↓ Опрос

        А Вы добавили сайт в закладки?
        Да
        Не


        Top 10 за месяц (Фильмы)