.
Авторизация | Регистрация
Хочешь лучшие торренты? Добавь свой email!
Добавить
» » Дневник девочки-подростка / The Diary of a Teenage Girl (2015) BDRip 720p | iTunes скачать торрент бесплатно




    Дневник девочки-подростка / The Diary of a Teenage Girl (2015) BDRip 720p | iTunes скачать торрент бесплатно

    Опубликовал: Админ | Дата: 18-01-2016, 05:01 | Просмотров: 121



    Детально о кино
    Русское название: Дневник девочки-подростка
    Русское название в мировом прокате: The Diary of a Teenage Girl
    Создали в: 2015
    Категория жанра: драма, мелодрама
    Главный режиссер: Мариэль Хеллер

    Актеры
    Бел Паули, Willie, Кристен Уиг, Эбби Уэйт, Александр Скарсгард, Миранда Бэйли, Карсон Д. Мелл, Джон Парсонс, Madeleine Waters, Остин Лион

    Сюжет фильма
    История девочки-подростка, живущей в Сан-Франциско в 70-е годы, которая завела интрижку с бойфрендом своей мамы.


    Снималось в: США/Archer Gray Productions, Caviar, Caviar Films, Cold Iron Pictures
    Время просмотра: 01: 42: 08
    Тип перевода: Профессиональное (многоголосое) iTunes
    Файл
    Тип видео: MKV
    Качество фильма: BDRip 720p
    Информация о видео: MPEG-4 AVC, 4506 kb/s, 1280x534
    Информация о звуке: Russian: AC3, 384 kb/s (6 ch)/English: DTS, 1510 kb/s (6 ch)
    MI

    Format : Matroska
    Format version : Version 2
    File size : 4.66 GiB
    Duration : 1h 42mn
    Overall bit rate : 6 529 Kbps
    Encoded date : UTC 2016-01-18 00: 00: 58
    Writing application : mkvmerge v7.8.0 (;River Man;) 32bit built on Apr 3 2015 12: 11: 22
    Writing library : libebml v1.3.1 + libmatroska v1.4.2
    Video
    ID : 1
    Format : AVC
    Format/Info : Advanced Video Codec
    Format profile : High@L4.1
    Format settings, CABAC : Yes
    Format settings, ReFrames : 12 frames
    Codec ID : V_MPEG4/ISO/AVC
    Duration : 1h 42mn
    Bit rate : 4 506 Kbps
    Width : 1 280 pixels
    Height : 534 pixels
    Display aspect ratio : 2.40: 1
    Frame rate mode : Constant
    Frame rate : 23.976 fps
    Color space : YUV
    Chroma subsampling : 4: 2: 0
    Bit depth : 8 bits
    Scan type : Progressive
    Bits/(Pixel*Frame) : 0.275
    Stream size : 3.21 GiB (69%)
    Writing library : x264 core 142 r2431+42 c69a006 tMod 8-bit@all X86_64
    Encoding settings : cabac=1/ref=12/deblock=1: -3: -3/analyse=0x3: 0x113/me=umh/subme=10/psy=1/fade_compensate=0.00/psy_rd=1.05: 0.00/mixed_ref=1/me_range=32/chroma_me=1/trellis=2/8x8dct=1/cqm=0/deadzone=21, 11/fast_pskip=0/chroma_qp_offset=-2/threads=16/lookahead_threads=2/sliced_threads=0/nr=0/decimate=0/interlaced=0/bluray_compat=0/constrained_intra=0/fgo=0/bframes=8/b_pyramid=2/b_adapt=2/b_bias=0/direct=3/weightb=1/open_gop=0/weightp=2/keyint=240/keyint_min=23/scenecut=40/intra_refresh=0/rc_lookahead=50/rc=crf/mbtree=0/crf=17.5000/qcomp=0.58/qpmin=0: 0: 0/qpmax=69: 69: 69/qpstep=4/vbv_maxrate=40000/vbv_bufsize=30000/crf_max=0.0/nal_hrd=none/filler=0/ip_ratio=1.10/pb_ratio=1.20/aq=2: 0.68/aq-sensitivity=10.00/aq-factor=1.00: 1.00: 1.00/aq2=0/aq3=0
    Language : English
    Default : Yes
    Forced : No
    Color range : Limited
    Color primaries : BT.709
    Transfer characteristics : BT.709
    Matrix coefficients : BT.709
    Audio #1
    ID : 2
    Format : AC-3
    Format/Info : Audio Coding 3
    Mode extension : CM (complete main)
    Format settings, Endianness : Big
    Codec ID : A_AC3
    Duration : 1h 42mn
    Bit rate mode : Constant
    Bit rate : 384 Kbps
    Channel(s) : 6 channels
    Channel positions : Front: L C R, Side: L R, LFE
    Sampling rate : 48.0 KHz
    Bit depth : 16 bits
    Compression mode : Lossy
    Stream size : 281 MiB (6%)
    Language : Russian
    Default : Yes
    Forced : No
    Audio #2
    ID : 3
    Format : DTS
    Format/Info : Digital Theater Systems
    Mode : 16
    Format settings, Endianness : Big
    Codec ID : A_DTS
    Duration : 1h 42mn
    Bit rate mode : Constant
    Bit rate : 1 509 Kbps
    Channel(s) : 6 channels
    Channel positions : Front: L C R, Side: L R, LFE
    Sampling rate : 48.0 KHz
    Bit depth : 16 bits
    Compression mode : Lossy
    Stream size : 1.08 GiB (23%)
    Language : English
    Default : No
    Forced : No
    Text #1
    ID : 4
    Format : PGS
    Muxing mode : zlib
    Codec ID : S_HDMV/PGS
    Codec ID/Info : Picture based subtitle format used on BDs/HD-DVDs
    Language : English
    Default : No
    Forced : No
    Text #2
    ID : 5
    Format : PGS
    Muxing mode : zlib
    Codec ID : S_HDMV/PGS
    Codec ID/Info : Picture based subtitle format used on BDs/HD-DVDs
    Language : French
    Default : No
    Forced : No
    Text #3
    ID : 6
    Format : PGS
    Muxing mode : zlib
    Codec ID : S_HDMV/PGS
    Codec ID/Info : Picture based subtitle format used on BDs/HD-DVDs
    Language : Portuguese
    Default : No
    Forced : No
    Text #4
    ID : 7
    Format : PGS
    Muxing mode : zlib
    Codec ID : S_HDMV/PGS
    Codec ID/Info : Picture based subtitle format used on BDs/HD-DVDs
    Language : Spanish
    Default : No
    Forced : No
    Menu
    00: 00: 00.000 : en: 00: 00: 00.000
    00: 06: 43.153 : en: 00: 06: 43.153
    00: 14: 35.917 : en: 00: 14: 35.917
    00: 20: 25.850 : en: 00: 20: 25.850
    00: 28: 04.766 : en: 00: 28: 04.766
    00: 34: 59.973 : en: 00: 34: 59.973
    00: 40: 59.666 : en: 00: 40: 59.666
    00: 45: 02.617 : en: 00: 45: 02.617
    00: 50: 04.251 : en: 00: 50: 04.251
    00: 56: 26.592 : en: 00: 56: 26.592
    01: 01: 52.542 : en: 01: 01: 52.542
    01: 08: 04.998 : en: 01: 08: 04.998
    01: 16: 34.965 : en: 01: 16: 34.965
    01: 23: 41.767 : en: 01: 23: 41.767
    01: 29: 15.225 : en: 01: 29: 15.225
    01: 36: 01.673 : en: 01: 36: 01.673
    Скриншоты






    Онлайн видео Дневник девочки-подростка


    Размер скачиваемого торрента: 4.66 GB (5001632641 Bytes)

    Дневник девочки-подростка/The Diary of a Teenage Girl (2015) BDRip 720p | iTunes
    загрузка...
    Рейтинг →
     (голосов: 1, оценка 5/5, голосовать можно 1 раз )

    Другие торренты по теме:

  • Фердинан Лаллеман - Пифей. Бортовой дневник античного мореплавателя (1956) EPUB
  • Ромовый дневник / The Rum Diary (2011) BDRip-AVC | iPad
  • Мелисса: Интимный дневник / Melissa P. (2005) DVDRip от b-kpo | P
  • Дневник доктора Зайцевой (2012) IPTVRip от Files-x
  • Дневник доктора - Мужчины лучшее лекарство / Doctors Diary - Mаnner sind die beste Medizin (2008-2011) BDRip 720р
  • Дневник толстожопой / My Mad Fat Diary (2013) HDTV | Mute
  • Дневник памяти / The Notebook (2004) BDRip 720p от marcury
  • Дневник сновидений / Yume Nikki (2005) PC


    • Комментарии (0):

      Информация

      Информация

        Посетители, находящиеся в группе Гости, не могут оставлять комментарии в данной новости.

        ↓ Меню



        ↓ Опрос

        А Вы добавили сайт в закладки?
        Да
        Не


        Top 10 за месяц (Фильмы)