.
Авторизация | Регистрация
Хочешь лучшие торренты? Добавь свой email!
Добавить
» » Легенда / Legend (2015) HDRip | КПК | iTunes скачать торрент бесплатно




    Легенда / Legend (2015) HDRip | КПК | iTunes скачать торрент бесплатно

    Опубликовал: Админ | Дата: 18-01-2016, 05:01 | Просмотров: 101


    • Легенда/Legend •
    ? Снималось в: Великобритания, Франция
    ? Создали в: Anton Capital Entertainment (ACE), Cross Creek Pictures, Working Title Films
    ? Создали в: 2015
    ? Категория жанра: криминал, триллер, драма
    ? Главный режиссёр: Брайан Хелгеленд
    ?
    Актеры
    Том Харди, Эмили Браунинг, Дэвид Тьюлис, Даффи, Кристофер Экклстон, Чазз Пальминтери, Колин Морган, Джошуа Хилл, Пол Андерсон, Тара Фитцджеральд

    ? Перевод текста: Профессиональный (полное дублирование) iTunes


    Описание фильма
    Фильм расскажет историю близнецов Реджи и Ронни Крэй, культовых фигур преступного мира Великобритании 1960-х. Братья возглавляли самую влиятельную бандитскую группировку Ист-Энда. В их послужном списке: вооруженные грабежи, рэкет, поджоги, покушения, убийства и собственный ночной клуб, куда доезжали даже голливудские знаменитости. Среди их жертв — криминальные авторитеты Джек МакВитти и Джордж Корнелл.



    ? Качество фильма: HDRip
    ? Время просмотра: 02: 11: 08

    ? Тип видео: MP4
    ? Информация о видео кодек: H.264
    ? Информация о звуке кодек: AAC-LC
    ? Свойства видео: 640x268 (2: 39: 1), 24.00 fps, 500 kbps (0.121 bit/pixel)
    ? Свойства аудио: 48.0 KHz, 2 ch, 128 kbps
    MediaInfo
    General
    Complete name : Legend.2015.HDLRip.mp4
    Format : MPEG-4
    Format profile : Base Media
    Codec ID : isom (isom/avc1/iso6)
    File size : 592 MiB
    Duration : 2h 11mn
    Overall bit rate mode : Variable
    Overall bit rate : 631 Kbps
    Encoded date : UTC 2016-01-16 23: 27: 05
    Tagged date : UTC 2016-01-16 23: 27: 05

    Video
    ID : 1
    Format : AVC
    Format/Info : Advanced Video Codec
    Format profile : High@L4.1
    Format settings, CABAC : Yes
    Format settings, ReFrames : 9 frames
    Codec ID : avc1
    Codec ID/Info : Advanced Video Coding
    Duration : 2h 11mn
    Bit rate : 500 Kbps
    Maximum bit rate : 1 726 Kbps
    Width : 640 pixels
    Height : 268 pixels
    Display aspect ratio : 2.40: 1
    Frame rate mode : Constant
    Frame rate : 24.000 fps
    Color space : YUV
    Chroma subsampling : 4: 2: 0
    Bit depth : 8 bits
    Scan type : Progressive
    Bits/(Pixel*Frame) : 0.121
    Stream size : 469 MiB (79%)
    Title : 264@GPAC0.5.2-DEV-rev248-g39d5978-master
    Writing library : x264 core 146 r2538 121396c
    Encoding settings : cabac=1/ref=9/deblock=1: -3: -3/analyse=0x3: 0x113/me=umh/subme=11/psy=1/psy_rd=1.00: 0.00/mixed_ref=1/me_range=32/chroma_me=1/trellis=2/8x8dct=1/cqm=0/deadzone=21, 11/fast_pskip=0/chroma_qp_offset=-2/threads=6/lookahead_threads=1/sliced_threads=0/nr=0/decimate=0/interlaced=0/bluray_compat=0/constrained_intra=0/bframes=9/b_pyramid=2/b_adapt=2/b_bias=0/direct=3/weightb=1/open_gop=0/weightp=2/keyint=240/keyint_min=23/scenecut=40/intra_refresh=0/rc=2pass/mbtree=0/bitrate=500/ratetol=1.0/qcomp=0.60/qpmin=0/qpmax=69/qpstep=4/cplxblur=20.0/qblur=0.5/ip_ratio=1.40/pb_ratio=1.30/aq=1: 1.00
    Encoded date : UTC 2016-01-16 23: 27: 05
    Tagged date : UTC 2016-01-16 23: 27: 35

    Audio
    ID : 2
    Format : AAC
    Format/Info : Advanced Audio Codec
    Format profile : LC
    Codec ID : 40
    Duration : 2h 11mn
    Bit rate mode : Variable
    Bit rate : 128 Kbps
    Maximum bit rate : 194 Kbps
    Channel(s) : 2 channels
    Channel positions : Front: L R
    Sampling rate : 48.0 KHz
    Frame rate : 46.875 fps (1024 spf)
    Compression mode : Lossy
    Stream size : 120 MiB (20%)
    Encoded date : UTC 2016-01-16 16: 25: 25
    Tagged date : UTC 2016-01-16 23: 27: 35
    Скриншоты

    Залил: ProT1gR

    Онлайн видео Легенда


    Размер скачиваемого торрента: 592.14 MB (620902015 Bytes)

    Легенда/Legend (2015) HDRip | КПК | iTunes
    загрузка...
    Рейтинг →
     (голосов: 1, оценка 5/5, голосовать можно 1 раз )

    Другие торренты по теме:

  • Легенда / Legend (1985) BDRip 1080p от NNNB | P | Theatrical Cut скачать через торрент бесплатно
  • Легенда / Legend (2015) DVDScr *PROPER* | Чистый звук
  • Легенда / Legend (2015) BDRip-AVC от HELLYWOOD | iTunes
  • Легенда / Legend (2015) BDRip 1080p от BlueBird | Лицензия
  • Легенда / Legend (2015) BDRip-AVC от New-Team | Лицензия
  • Легенда / Legend (2015) HDRip от Scarabey | US Transfer | Лицензия
  • Легенда / Legend (2015) HDRip-AVC | D | Лицензия
  • Доктор заяц и легенда о Зубном королевстве / Legend of dental Kingdom (2009) DVDRip от RG Superdetki


    • Комментарии (0):

      Информация

      Информация

        Посетители, находящиеся в группе Гости, не могут оставлять комментарии в данной новости.

        ↓ Меню



        ↓ Опрос

        А Вы добавили сайт в закладки?
        Да
        Не


        Top 10 за месяц (Фильмы)