.
Авторизация | Регистрация
Хочешь лучшие торренты? Добавь свой email!
Добавить
» » Пленник / Captive (2015) BDRip 720p | L2 скачать торрент бесплатно




    Пленник / Captive (2015) BDRip 720p | L2 скачать торрент бесплатно

    Опубликовал: Админ | Дата: 10-01-2016, 05:01 | Просмотров: 125



    Детально о кино
    Русское название: Пленник
    Русское название в мировом прокате: Captive
    Создали в: 2015
    Категория жанра: триллер, драма, криминал
    Главный режиссер: Джерри Джеймсон

    Актеры
    Кейт Мара, Мими Роджерс, Майкл Кеннет Уильямс, Дэвид Ойелоуо, Леонор Варела, Мэтт Лоу, Джессика Ойелоуо, Э. Роджер Митчелл, Рэймонд Скотт Паркс, Дж. Карен Томас

    Сюжет фильма
    Мать-одиночка, борющаяся с наркотической зависимостью, взята в заложники в собственной квартире, мужчиной, который сбежал из тюрьмы и убил судью, назначенного на его дело.


    Снималось в: США/1019 Entertainment, BN Films, Brightside Entertainment, Itaca Films, Yoruba Saxon Productions
    Время просмотра: 01: 37: 08
    Тип перевода: Любительское (двухголососое) Parovoz Production
    Файл
    Тип видео: MKV
    Качество фильма: BDRip 720p
    Информация о видео: MPEG-4 AVC, 6514 kb/s, 1280x720
    Информация о звуке: Russian: AC3, 192 kb/s (2 ch)/English: AC3, 640 kb/s (6 ch)
    Субтитры: English, French, Spanish, Portuguese, German
    MI

    Format : Matroska
    Format version : Version 2
    File size : 4.64 GiB
    Duration : 1h 37mn
    Overall bit rate : 6 842 Kbps
    Encoded date : UTC 2016-01-10 01: 13: 26
    Writing application : mkvmerge v7.8.0 (;River Man;) 32bit built on Apr 3 2015 12: 11: 22
    Writing library : libebml v1.3.1 + libmatroska v1.4.2
    Video
    ID : 1
    Format : AVC
    Format/Info : Advanced Video Codec
    Format profile : High@L4.1
    Format settings, CABAC : Yes
    Format settings, ReFrames : 9 frames
    Codec ID : V_MPEG4/ISO/AVC
    Duration : 1h 37mn
    Bit rate : 6 514 Kbps
    Width : 1 280 pixels
    Height : 720 pixels
    Display aspect ratio : 16: 9
    Frame rate mode : Constant
    Frame rate : 23.976 fps
    Color space : YUV
    Chroma subsampling : 4: 2: 0
    Bit depth : 8 bits
    Scan type : Progressive
    Bits/(Pixel*Frame) : 0.295
    Stream size : 4.42 GiB (95%)
    Writing library : x264 core 142 r2431+42 c69a006 tMod 8-bit@all X86_64
    Encoding settings : cabac=1/ref=9/deblock=1: -3: -3/analyse=0x3: 0x113/me=umh/subme=10/psy=1/fade_compensate=0.00/psy_rd=1.00: 1.00/mixed_ref=1/me_range=32/chroma_me=1/trellis=2/8x8dct=1/cqm=0/deadzone=21, 11/fast_pskip=0/chroma_qp_offset=-4/threads=16/lookahead_threads=2/sliced_threads=0/nr=0/decimate=0/interlaced=0/bluray_compat=0/constrained_intra=0/fgo=0/bframes=8/b_pyramid=2/b_adapt=2/b_bias=0/direct=3/weightb=1/open_gop=0/weightp=2/keyint=240/keyint_min=23/scenecut=40/intra_refresh=0/rc_lookahead=120/rc=crf/mbtree=0/crf=17.0000/qcomp=0.60/qpmin=0: 0: 0/qpmax=69: 69: 69/qpstep=4/vbv_maxrate=40000/vbv_bufsize=30000/crf_max=0.0/nal_hrd=none/filler=0/ip_ratio=1.20/pb_ratio=1.30/aq=2: 0.68/aq-sensitivity=10.00/aq-factor=1.00: 1.00: 1.00/aq2=0/aq3=0
    Language : English
    Default : Yes
    Forced : No
    Color range : Limited
    Color primaries : BT.709
    Transfer characteristics : BT.709
    Matrix coefficients : BT.709
    Audio
    ID : 2
    Format : AC-3
    Format/Info : Audio Coding 3
    Mode extension : CM (complete main)
    Format settings, Endianness : Big
    Codec ID : A_AC3
    Duration : 1h 37mn
    Bit rate mode : Constant
    Bit rate : 192 Kbps
    Channel(s) : 2 channels
    Channel positions : Front: L R
    Sampling rate : 48.0 KHz
    Bit depth : 16 bits
    Compression mode : Lossy
    Stream size : 133 MiB (3%)
    Language : Russian
    Default : Yes
    Forced : No
    Text #1
    ID : 3
    Format : PGS
    Muxing mode : zlib
    Codec ID : S_HDMV/PGS
    Codec ID/Info : Picture based subtitle format used on BDs/HD-DVDs
    Language : English
    Default : No
    Forced : No
    Text #2
    ID : 4
    Format : PGS
    Muxing mode : zlib
    Codec ID : S_HDMV/PGS
    Codec ID/Info : Picture based subtitle format used on BDs/HD-DVDs
    Language : French
    Default : No
    Forced : No
    Text #3
    ID : 5
    Format : PGS
    Muxing mode : zlib
    Codec ID : S_HDMV/PGS
    Codec ID/Info : Picture based subtitle format used on BDs/HD-DVDs
    Language : Spanish
    Default : No
    Forced : No
    Text #4
    ID : 6
    Format : PGS
    Muxing mode : zlib
    Codec ID : S_HDMV/PGS
    Codec ID/Info : Picture based subtitle format used on BDs/HD-DVDs
    Language : Portuguese
    Default : No
    Forced : No
    Text #5
    ID : 7
    Format : PGS
    Muxing mode : zlib
    Codec ID : S_HDMV/PGS
    Codec ID/Info : Picture based subtitle format used on BDs/HD-DVDs
    Language : German
    Default : No
    Forced : No
    Menu
    00: 00: 00.000 : en: 00: 00: 00.000
    00: 05: 24.366 : en: 00: 05: 24.366
    00: 10: 19.244 : en: 00: 10: 19.244
    00: 14: 30.912 : en: 00: 14: 30.912
    00: 19: 38.052 : en: 00: 19: 38.052
    00: 25: 40.664 : en: 00: 25: 40.664
    00: 31: 23.548 : en: 00: 31: 23.548
    00: 37: 18.736 : en: 00: 37: 18.736
    00: 43: 18.179 : en: 00: 43: 18.179
    00: 47: 06.782 : en: 00: 47: 06.782
    00: 52: 34.568 : en: 00: 52: 34.568
    00: 57: 48.507 : en: 00: 57: 48.507
    01: 04: 46.341 : en: 01: 04: 46.341
    01: 11: 44.884 : en: 01: 11: 44.884
    01: 16: 59.031 : en: 01: 16: 59.031
    01: 21: 53.742 : en: 01: 21: 53.742
    01: 27: 58.857 : en: 01: 27: 58.857
    01: 32: 20.368 : en: 01: 32: 20.368
    Скриншоты





    Онлайн видео Пленник


    Размер скачиваемого торрента: 4.64 GB (4983868539 Bytes)

    Пленник/Captive (2015) BDRip 720p | L2
    загрузка...
    Рейтинг →
     (голосов: 1, оценка 3/5, голосовать можно 1 раз )

    Другие торренты по теме:

  • Пленник / Captive (2015) BDRip 720p | L2
  • Пленник / Captive (2015) HDRip | L2
  • Пленник / Captive (2015) HDRip-AVC | L2
  • Пленник / Captive (2015) BDRip от Twi7ter | Line
  • Пленник / Captive (2015) BDRip 1080p от New-Team | iTunes
  • Пленник / Captive (2015) HDRip от MegaPeer | iTunes
  • Пленник / Captive (2015) BDRip-AVC от ExKinoRay | iTunes


    • Комментарии (0):

      Информация

      Информация

        Посетители, находящиеся в группе Гости, не могут оставлять комментарии в данной новости.

        ↓ Меню



        ↓ Опрос

        А Вы добавили сайт в закладки?
        Да
        Не


        Top 10 за месяц (Фильмы)