.
Авторизация | Регистрация
Хочешь лучшие торренты? Добавь свой email!
Добавить
» » Демоны Да Винчи / Da Vincis Demons (2013-2015) WEB-DLRip от Generalfilm | КПК | LostFilm скачать торрент бесплатно




    Демоны Да Винчи / Da Vincis Demons (2013-2015) WEB-DLRip от Generalfilm | КПК | LostFilm скачать торрент бесплатно

    Опубликовал: Админ | Дата: 9-01-2016, 05:01 | Просмотров: 97



    Детально о кино
    Русское название: Демоны Да Винчи
    Русское название в мировом прокате: Da Vinci;s Demons
    Создали в: 2013
    Категория жанра: Фэнтези, драма, приключения, история
    Главный режиссер: Майкл Дж. Бассетт, Дэвид С. Гойер, Джэми Пэйн

    Актеры
    Том Райли, Лора Хэддок, Йен Пири, Эрос Влахос, Грегг Чиллин, Лара Пулвер, Том Бейтман, Гера Хилмарсдоттир, Эллиот Леви, Росс О’Хеннесси, Дилан Гвин

    Сюжет фильма

    В мире, где мысль и вера находятся под контролем, один человек борется за то, чтобы сделать знания доступными для всех. Не рассказанная история трагичной жизни Леонардо Да Винчи раскрывает портрет молодого человека, которого мучает дар гения. Он — еретик, жаждущий раскрыть ложь религии. Бунтарь, стремящийся низвергнуть элитарное общество. Незаконнорожденный сын, требующий от своего отца признания его прав. Он оказывается посреди разразившегося урагана страстей, который спал веками. Внутри конфликта между правдой и ложью, религией и интеллектом, прошлым и будущим. Его стремления используются против него противоборствующими силами того времени, вовлекая его в соблазнительную игру, в которой те, кто презирает его ум, нуждаются в нём больше всего. Леонардо должен вступить в конфронтацию с теми, кто использует историю, чтобы скрыть истину. Вооружённый лишь собственным гением Да Винчи в одиночку противостоит тьме как внутри, так и снаружи. Перед лицом неопределённости будущего его поход за знаниями едва не становится для него погибелью, когда он переходит за грань своего здравомыслия. Да Винчи, словно в омут с головой, уходит в собственные гениальные идеи, воплотив которые, становится необоримой силой, вытаскивающей из темноты и поворачивающей к свету целую эпоху. Его история становится зеркалом для нашего мира, зовущее всех нас на бой за Свободное Будущее.

    Снималось в: США
    Киностудия: BBC Worldwide Productions
    Время просмотра: 28 x ~00: 59: 00
    Перевод текста: Профессиональный (многоголосый, закадровый) LostFilm
    Файл
    Тип видео: MP4
    Качество фильма: WEB-DLRip | КПК
    Информация о видео: MPEG-4 AVC (x264), 640x360, ~500 kbps, 23.976 fps
    Информация о звуке: AAC LC, 48.0 KHz, 2 ch, 128 Kbps
    Субтитры: Нет
    Семпл
    Скриншоты

    MI
    Complete name : E: KinoDemony.Da.Vinchi.AVC.WEB-DLRip.KPK.GeneralfilmDemony.Da.Vinchi.S01.2013.AVC.WEB-DLRip.KPK.GeneralfilmDemony.Da.Vinchi.s01e02.2013.AVC.WEB-DLRip.KPK.Generalfilm.mp4
    Format : MPEG-4
    Format profile : Base Media
    Codec ID : isom
    File size : 266 MiB
    Duration : 58mn 54s
    Overall bit rate mode : Variable
    Overall bit rate : 630 Kbps
    Encoded date : UTC 2014-03-22 09: 32: 02
    Tagged date : UTC 2014-03-22 09: 32: 02
    Video
    ID : 1
    Format : AVC
    Format/Info : Advanced Video Codec
    Format profile : Baseline@L4.1
    Format settings, CABAC : No
    Format settings, ReFrames : 6 frames
    Codec ID : avc1
    Codec ID/Info : Advanced Video Coding
    Duration : 58mn 54s
    Bit rate : 500 Kbps
    Maximum bit rate : 2 828 Kbps
    Width : 640 pixels
    Height : 360 pixels
    Display aspect ratio : 16: 9
    Frame rate mode : Constant
    Frame rate : 23.976 fps
    Color space : YUV
    Chroma subsampling : 4: 2: 0
    Bit depth : 8 bits
    Scan type : Progressive
    Bits/(Pixel*Frame) : 0.091
    Stream size : 211 MiB (79%)
    Writing library : x264 core 125 r2200 999b753
    Encoding settings : cabac=0/ref=6/deblock=1: -1: -1/analyse=0x1: 0x111/me=umh/subme=7/psy=1/psy_rd=1.00: 0.00/mixed_ref=0/me_range=16/chroma_me=1/trellis=1/8x8dct=0/cqm=0/deadzone=21, 11/fast_pskip=0/chroma_qp_offset=-2/threads=12/lookahead_threads=2/sliced_threads=0/nr=0/decimate=1/interlaced=0/bluray_compat=0/constrained_intra=0/bframes=0/weightp=0/keyint=250/keyint_min=23/scenecut=40/intra_refresh=0/rc_lookahead=60/rc=2pass/mbtree=1/bitrate=500/ratetol=1.0/qcomp=0.60/qpmin=0/qpmax=69/qpstep=4/cplxblur=20.0/qblur=0.5/ip_ratio=1.40/aq=1: 1.00
    Encoded date : UTC 2014-03-22 09: 32: 02
    Tagged date : UTC 2014-03-22 09: 32: 07
    Audio
    ID : 2
    Format : AAC
    Format/Info : Advanced Audio Codec
    Format profile : LC
    Codec ID : 40
    Duration : 58mn 54s
    Bit rate mode : Variable
    Bit rate : 128 Kbps
    Maximum bit rate : 144 Kbps
    Channel count : 2 channels
    Channel positions : Front: L R
    Sampling rate : 48.0 KHz
    Compression mode : Lossy
    Stream size : 53.9 MiB (20%)
    Encoded date : UTC 2014-03-22 09: 32: 06
    Tagged date : UTC 2014-03-22 09: 32: 07

    Релиз подготовил:
    Залил: toys_watch

    Онлайн видео Демоны Да Винчи


    Размер скачиваемого торрента: 6.84 GB (7342067091 Bytes)

    Демоны Да Винчи/Da Vincis Demons (2013-2015) WEB-DLRip от Generalfilm | КПК | LostFilm
    загрузка...
    Рейтинг →
     (голосов: 1, оценка 5/5, голосовать можно 1 раз )

    Другие торренты по теме:

  • Демоны Да Винчи / Da Vinci`s Demons (2013) HDTVRip | L1
  • OST - Демоны Да Винчи / Da Vincis Demons (2013) MP3
  • Демоны Да Винчи / Da Vincis Demons (2013) WEB-DL 1080p от MediaClub
  • Демоны да Винчи / Da Vincis Demons (2013) WEB-DLRip | LostFilm
  • Демоны Да Винчи / Da Vincis Demons (2013) BDRip 720p от MediaClub | Jaskier, AlexFilm
  • Демоны Да Винчи / Da Vinci`s Demons (2013) HDRip | AlexFilm скачать через торрент бесплатно
  • Демоны да Винчи / Da Vincis Demons (2013) HDTVRip 720p | LostFilm скачать через торрент бесплатно
  • Демоны да Винчи / Da Vincis Demons (2014) HDTVRip 720p | LostFilm скачать через торрент бесплатно


    • Комментарии (0):

      Информация

      Информация

        Посетители, находящиеся в группе Гости, не могут оставлять комментарии в данной новости.

        ↓ Меню



        ↓ Опрос

        А Вы добавили сайт в закладки?
        Да
        Не


        Top 10 за месяц (Фильмы)