.
Авторизация | Регистрация
Хочешь лучшие торренты? Добавь свой email!
Добавить
» » Стажер / The Intern (2015) BDRip 1080p | iTunes скачать торрент бесплатно




    Стажер / The Intern (2015) BDRip 1080p | iTunes скачать торрент бесплатно

    Опубликовал: Админ | Дата: 8-01-2016, 05:01 | Просмотров: 131



    Детально о кино
    Русское название: Стажер
    Русское название в мировом прокате: The Intern
    Создали в: 2015
    Категория жанра: мелодрама, комедия
    Главный режиссер: Нэнси Майерс

    Актеры
    Роберт Де Ниро, Энн Хэтэуэй, Рене Руссо, Андерс Холм, ДжоДжо Кушнер, Эндрю Рэннеллс, Адам Дивайн, Илан Кригсфелд, Зак Перлман, Джейсон Орли

    Сюжет фильма

    Бывший делец, Бен Уитакер устал быть пенсионером, в свои 70 с небольшим лет он полон энергии и жаждет работы. Общение - вот чего не хватает одинокому вдовцу, и он готов к переменам.
    Жюль - молодая хозяйка интернет-магазина ищет помощников, которые позволят ей освободить время для семьи и освежить бизнес. Подавая объявление, она не ожидала, что ее сотрудником станет дедушка, мало смыслящий в моде, но полный амбиций и идей. Но она дала ему шанс, тем более, что новый консультант даже не требовал зарплаты. Его опыт, знания и навыки - вот то богатство, которым она сам может поделиться с молодой леди.
    Но все-таки надо как-то договориться с крепким старичком, кто же начальник в офисе.

    Снималось в: США
    Киностудия: Waverly Films
    Время просмотра: 02: 01: 32
    Перевод текста: Профессиональный (дублированный) iTunes Russia
    Файл
    Тип видео: Matroska
    Информация о видео: 1920x1080 at 23.976 fps, x264@L4.1, ~15000 kbps avg
    Aудио#1: Russian: 48 kHz, AC3, 3/2 (L, C, R, l, r) + LFE ch, ~384.00 kbps avg |Дубляж, iTunes Russia|
    Aудио#2: English: 48 kHz, DTS, 3/2 (L, C, R, l, r) + LFE ch, ~1509.00 kbps avg
    Субтитры: Russian (Forced, iTunes), Russian (iTunes)
    ***Сохранены оригинальные главы как на Blu-ray.
    ***Видеоряд - HDMaNiAcS, сборка рипа - bog3417.
    Знаете ли Вы, что...
    Первоначально на роль Джулс рассматривалась Риз Уизерспун, но она покинула проект, и роль в итоге досталась Энн Хэтэуэй.
    Прежде чем предложить роль Бена Уитакера Роберту Де Ниро, Нэнси Майерс предлагала ее Джеку Николсону.
    В одной из сцен разговора Джулс Остин с Кэмероном можно заметить, что мобильный телефон последнего не находится в режиме разговор, вместо этого на экране устройства открыт главный экран.
    MI
    Общее
    Уникальный идентификатор : 226634653232615812530781836335995284418 (0xAA803F1B41AA2957946A5B094F05EBC2)
    Полное имя : The Intern 2015 1080p BluRay DTS x264-HDMaNiAcS.mkv
    Формат : Matroska
    Версия формата : Version 2
    Размер файла : 14, 3 Гбайт
    Продолжительность : 2 ч. 1 м.
    Общий поток : 16, 9 Мбит/сек
    Дата кодирования : UTC 2016-01-07 20: 22: 12
    Программа кодирования : mkvmerge v7.9.0 (;Birds;) 64bit
    Библиотека кодирования : libebml v1.3.1 + libmatroska v1.4.2
    Видео
    Идентификатор : 1
    Формат : AVC
    Формат/Информация : Advanced Video Codec
    Профиль формата : High@L4.1
    Параметр CABAC формата : Да
    Параметр ReFrames формата : 4 кадра
    Идентификатор кодека : V_MPEG4/ISO/AVC
    Продолжительность : 2 ч. 1 м.
    Битрейт : 15, 0 Мбит/сек
    Ширина : 1920 пикселей
    Высота : 1080 пикселей
    Соотношение сторон : 16: 9
    Режим частоты кадров : Постоянный
    Частота кадров : 23, 976 кадра/сек
    Цветовое пространство : YUV
    Субдискретизация насыщенности : 4: 2: 0
    Битовая глубина : 8 бит
    Тип развёртки : Прогрессивная
    Бит/(Пиксели*Кадры) : 0.302
    Размер потока : 12, 4 Гбайт (87%)
    Библиотека кодирования : x264 core 148 r2638kMod 7599210
    Настройки программы : cabac=1/ref=4/deblock=1: -3: -3/analyse=0x3: 0x113/me=umh/subme=11/psy=1/fade_compensate=0.00/psy_rd=1.00: 0.05/mixed_ref=1/me_range=24/chroma_me=1/trellis=2/8x8dct=1/cqm=0/deadzone=21, 11/fast_pskip=0/chroma_qp_offset=-3/threads=12/lookahead_threads=2/sliced_threads=0/nr=0/decimate=0/interlaced=0/bluray_compat=0/constrained_intra=0/fgo=0/bframes=9/b_pyramid=2/b_adapt=2/b_bias=0/direct=3/weightb=1/open_gop=0/weightp=2/keyint=240/keyint_min=23/scenecut=40/intra_refresh=0/rc_lookahead=80/rc=2pass/mbtree=1/bitrate=15000/ratetol=1.0/qcomp=0.65/qpmin=0/qpmax=69/qpstep=4/cplxblur=20.0/qblur=0.5/vbv_maxrate=62500/vbv_bufsize=78125/nal_hrd=none/filler=0/ip_ratio=1.25/aq=1: 0.60
    Язык : English
    Default : Да
    Forced : Нет
    Аудио #1
    Идентификатор : 2
    Формат : AC-3
    Формат/Информация : Audio Coding 3
    Расширение режима : CM (complete main)
    Параметр Endianness формата : Big
    Идентификатор кодека : A_AC3
    Продолжительность : 2 ч. 1 м.
    Вид битрейта : Постоянный
    Битрейт : 384 Кбит/сек
    Каналы : 6 каналов
    Расположение каналов : Front: L C R, Side: L R, LFE
    Частота : 48, 0 КГц
    Метод сжатия : С потерями
    Размер потока : 334 Мбайт (2%)
    Язык : Russian
    Default : Да
    Forced : Нет
    Аудио #2
    Идентификатор : 3
    Формат : DTS
    Формат/Информация : Digital Theater Systems
    Режим : 16
    Параметр Endianness формата : Big
    Идентификатор кодека : A_DTS
    Продолжительность : 2 ч. 1 м.
    Вид битрейта : Постоянный
    Битрейт : 1509 Кбит/сек
    Каналы : 6 каналов
    Расположение каналов : Front: L C R, Side: L R, LFE
    Частота : 48, 0 КГц
    Битовая глубина : 24 бит
    Метод сжатия : С потерями
    Размер потока : 1, 28 Гбайт (9%)
    Язык : English
    Default : Нет
    Forced : Нет
    Текст #1
    Идентификатор : 4
    Формат : UTF-8
    Идентификатор кодека : S_TEXT/UTF8
    Идентификатор кодека/Информация : UTF-8 Plain Text
    Язык : Russian
    Default : Да
    Forced : Нет
    Текст #2
    Идентификатор : 5
    Формат : UTF-8
    Идентификатор кодека : S_TEXT/UTF8
    Идентификатор кодека/Информация : UTF-8 Plain Text
    Язык : Russian
    Default : Нет
    Forced : Нет
    Меню
    00: 00: 00.000 : en: 00: 00: 00.000
    00: 09: 31.154 : en: 00: 09: 31.154
    00: 19: 55.361 : en: 00: 19: 55.361
    00: 30: 29.953 : en: 00: 30: 29.953
    00: 41: 18.434 : en: 00: 41: 18.434
    00: 50: 18.682 : en: 00: 50: 18.682
    01: 00: 34.047 : en: 01: 00: 34.047
    01: 10: 19.048 : en: 01: 10: 19.048
    01: 19: 16.460 : en: 01: 19: 16.460
    01: 30: 59.913 : en: 01: 30: 59.913
    01: 42: 48.496 : en: 01: 42: 48.496
    01: 51: 11.206 : en: 01: 51: 11.206
    01: 56: 41.995 : en: 01: 56: 41.995
    Скриншоты




    Онлайн видео Стажер


    Размер скачиваемого торрента: 14.33 GB (15390729812 Bytes)

    Стажер/The Intern (2015) BDRip 1080p | iTunes
    загрузка...
    Рейтинг →
     (голосов: 1, оценка 4/5, голосовать можно 1 раз )

    Другие торренты по теме:

  • Стажер / The Intern (2015) WEBRip 1080p | Трейлер
  • Стажер / The Intern (2015) WEB-DLRip | Чистый звук
  • Стажер / The Intern (2015) WEB-DL 720p | Чистый звук
  • Стажер / The Intern (2015) WEB-DLRip от AleksSin | Чистый звук
  • Стажер / The Intern (2015) WEB-DLRip от AleksSin | iTunes
  • Стажер / The Intern (2015) BDRip 1080p | Лицензия
  • Стажер / The Intern (2015)
  • Стажер / The Intern (2015) BDRemux 1080p | Лицензия


    • Комментарии (0):

      Информация

      Информация

        Посетители, находящиеся в группе Гости, не могут оставлять комментарии в данной новости.

        ↓ Меню



        ↓ Опрос

        А Вы добавили сайт в закладки?
        Да
        Не


        Top 10 за месяц (Фильмы)