.
Авторизация | Регистрация
Хочешь лучшие торренты? Добавь свой email!
Добавить
» » Superнянь 2 / Babysitting 2 (2015) WEB-DLRip | КПК | iTunes скачать торрент бесплатно




    Superнянь 2 / Babysitting 2 (2015) WEB-DLRip | КПК | iTunes скачать торрент бесплатно

    Опубликовал: Админ | Дата: 5-01-2016, 05:01 | Просмотров: 101


    • Superнянь 2/Babysitting 2 •
    ? Снималось в: Франция
    ? Создали в: Axel Films, Film Factory
    ? Создали в: 2015
    ? Категория жанра: комедия
    ? Главный режиссёр: Николас Бенаму, Филипп Лашо
    ?
    Актеры
    Филипп Лашо, Алис Давид, Венсан Дезанья, Тарек Будали, Кристиан Клавье, Жюльен Аррути, Грегуар Людиг, Давид Марсе, Шарлотта Габрис, Бето Бенитес

    ? Перевод текста: Профессиональный (полное дублирование) iTunes


    Описание фильма
    Влюбленная парочка Фрэнк и Соня приглашают своих друзей на отдых в Бразилию, в роскошный отель богатенького папы Сони. Планировалось, что это будет отдых мечты, а Фрэнк сделает Соне предложение посреди всей этой экзотики. Но его попытки получить одобрение отца оборачиваются полным провалом. Ведь с такими друзьями, как у него, и враги не нужны! Но настоящая катастрофа — впереди. Когда друзья — сексуально озабоченный Сэм, наивный чудак Эрнест и умственно отсталый Алекс — вместе с беднягой Фрэнком собрались на экскурсию, ушлый папаша пользуется возможностью и засылает в джунгли с этой бандой свою крикливую и надоедливую старушку. В общем, Амазонка и ее девственные леса еще никогда не были в такой опасности!



    ? Качество фильма: WEB-DLRip
    ? Время просмотра: 01: 32: 41

    ? Тип видео: MP4
    ? Информация о видео кодек: H.264
    ? Информация о звуке кодек: AAC-LC
    ? Свойства видео: 640x360 (16: 9), 24.000 fps, 500 kbps (0.090 bit/pixel)
    ? Свойства аудио: 48.0 KHz, 2 ch, 128 kbps
    MediaInfo
    General
    Complete name : Babysitting.2.2015.WEB-DLRip.mp4
    Format : MPEG-4
    Format profile : Base Media
    Codec ID : isom (isom/avc1/iso6)
    File size : 419 MiB
    Duration : 1h 32mn
    Overall bit rate mode : Variable
    Overall bit rate : 632 Kbps
    Encoded date : UTC 2016-01-03 18: 27: 49
    Tagged date : UTC 2016-01-03 18: 27: 49

    Video
    ID : 1
    Format : AVC
    Format/Info : Advanced Video Codec
    Format profile : High@L4.1
    Format settings, CABAC : Yes
    Format settings, ReFrames : 9 frames
    Codec ID : avc1
    Codec ID/Info : Advanced Video Coding
    Duration : 1h 32mn
    Bit rate : 500 Kbps
    Maximum bit rate : 1 572 Kbps
    Width : 640 pixels
    Height : 360 pixels
    Display aspect ratio : 16: 9
    Frame rate mode : Constant
    Frame rate : 24.000 fps
    Color space : YUV
    Chroma subsampling : 4: 2: 0
    Bit depth : 8 bits
    Scan type : Progressive
    Bits/(Pixel*Frame) : 0.090
    Stream size : 331 MiB (79%)
    Title : 264@GPAC0.5.2-DEV-rev248-g39d5978-master
    Writing library : x264 core 146 r2538 121396c
    Encoding settings : cabac=1/ref=9/deblock=1: -3: -3/analyse=0x3: 0x113/me=umh/subme=11/psy=1/psy_rd=1.00: 0.00/mixed_ref=1/me_range=32/chroma_me=1/trellis=2/8x8dct=1/cqm=0/deadzone=21, 11/fast_pskip=0/chroma_qp_offset=-2/threads=6/lookahead_threads=1/sliced_threads=0/nr=0/decimate=0/interlaced=0/bluray_compat=0/constrained_intra=0/bframes=9/b_pyramid=2/b_adapt=2/b_bias=0/direct=3/weightb=1/open_gop=0/weightp=2/keyint=240/keyint_min=23/scenecut=40/intra_refresh=0/rc=2pass/mbtree=0/bitrate=500/ratetol=1.0/qcomp=0.60/qpmin=0/qpmax=69/qpstep=4/cplxblur=20.0/qblur=0.5/ip_ratio=1.40/pb_ratio=1.30/aq=1: 1.00
    Encoded date : UTC 2016-01-03 18: 27: 49
    Tagged date : UTC 2016-01-03 18: 29: 14

    Audio
    ID : 2
    Format : AAC
    Format/Info : Advanced Audio Codec
    Format profile : LC
    Codec ID : 40
    Duration : 1h 32mn
    Bit rate mode : Variable
    Bit rate : 128 Kbps
    Maximum bit rate : 177 Kbps
    Channel(s) : 2 channels
    Channel positions : Front: L R
    Sampling rate : 48.0 KHz
    Frame rate : 46.875 fps (1024 spf)
    Compression mode : Lossy
    Stream size : 84.9 MiB (20%)
    Encoded date : UTC 2016-01-03 15: 18: 58
    Tagged date : UTC 2016-01-03 18: 29: 14
    Скриншоты

    Залил: ProT1gR

    Онлайн видео Superнянь 2


    Размер скачиваемого торрента: 418.83 MB (439177291 Bytes)

    Superнянь 2/Babysitting 2 (2015) WEB-DLRip | КПК | iTunes
    загрузка...
    Рейтинг →
     (голосов: 1, оценка 4/5, голосовать можно 1 раз )

    Другие торренты по теме:

  • Superнянь / Babysitting скачать через торрент бесплатно
  • Superнянь / Babysitting (2014) HDRip от Scarabey | iTunes скачать через торрент бесплатно
  • Superнянь 2 / Babysitting 2 (2015) BDRemux 1080p | iTunes
  • Superнянь 2 / Babysitting 2 (2015) BDRip 720р от SuperMin | iTunes


    • Комментарии (0):

      Информация

      Информация

        Посетители, находящиеся в группе Гости, не могут оставлять комментарии в данной новости.

        ↓ Меню



        ↓ Опрос

        А Вы добавили сайт в закладки?
        Да
        Не


        Top 10 за месяц (Фильмы)