.
Авторизация | Регистрация
Хочешь лучшие торренты? Добавь свой email!
Добавить




Морозко (1964) DVDRip от New-Team скачать торрент бесплатно

Опубликовал: Админ | Дата: 31-12-2015, 14:38 | Просмотров: 123



Создали в: 1964
Снималось в: СССР
Категория жанра: фэнтези, мелодрама, комедия, семейный
Время просмотра: 01: 18: 50
Перевод текста: не требуется
Субтитры: нет
Оригинальная аудиодорожка: русский
Главный режиссер: Александр Роу

Актеры

Александр Хвыля, Наталья Седых, Эдуард Изотов, Инна Чурикова, Павел Павленко, Вера Алтайская, Георгий Милляр, Галина Борисова (озвучание - Михаил Яншин), Анатолий Кубацкий, Валентин Брылеев, Татьяна Пельтцер, Татьяна Барышева, Варвара Попова, Зинаида Воркуль, Наталья Зорина, Клавдия Козлёнкова, Маргарита Корабельникова, Вера Петрова, Лев Потемкин, Андрей Стапран (озвучание - Юрий Медведев), Константин Старостин, Александр Тимонтаев, Юрий Чекулаев, Михаил Щербаков, Оля и Таня Юкины, Анастасия Зуева...
Полный список актёров
Описание:
Жили-были старик со старухой, и было у них две дочери. Одна, старикова - красавица, умница, рукодельница Настенька. Другая, старухина - некрасивая лентяйка и неумеха Марфушка. Тяжело жилось Настеньке в отчем доме, заставляла ее мачеха работать с утра до ночи и с ночи до утра, да всю злобу на ней вымещала. А в другой деревне жил с матерью добрый молодец Иван, любивший лишь себя самого и красотой да статью своей похвалявшийся. Отправился как-то Иван погулять по белу свету - людей посмотреть и себя показать. И повстречался ему волшебник - старичок Боровичок, подаривший Ивану волшебный лук и стрелы. А невежа Иван ему даже спасибо не сказал. Потом встретил Иван Настеньку - и поначалу на красу ее наглядеться не мог, однако, и ее обидел...
Награды:
Золотой лев Святого Марка на XVII Международном кинофестивале детских и юношеских фильмов в Венеции (1965), Award of Excellence от Консультативного совета по кинематографии США за лучший киносценарий для семейного просмотра



Исходник: DVD9 R5
Тип релиза: DVDRip
Контейнер: AVI
Информация о видео: 704x528 (4: 3), 25 fps, XviD ~ 1741 kbps avg, 0.187 bit/pixel
Информация о звуке: 48 kHz, Dolby Digital AC3 5.1, 448 kbps русский
Информация о звуке: 48 kHz, Dolby Digital AC3 5.1, 448 kbps английский
Раздача от:
MediaInfo

Общее
Полное имя : Morozko.1964.DVDRip_New-team_by_AVP_Studio.avi
Формат : AVI
Формат/Информация : Audio Video Interleave
Размер файла : 1, 46 Гбайт
Продолжительность : 1 ч. 18 м.
Общий поток : 2651 Кбит/сек
Программа кодирования : VirtualDubModRus 1.5.10.2 (build 2542/release)
Библиотека кодирования : VirtualDubMod build 2542/release
Видео
Идентификатор : 0
Формат : MPEG-4 Visual
Профиль формата : Advanced Simple@L5
Параметр BVOP формата : 1
Параметр QPel формата : Нет
Параметр GMC формата : Без точки перехода
Параметр матрицы формата : Выборочная
Идентификатор кодека : XVID
Идентификатор кодека/Подсказка : XviD
Продолжительность : 1 ч. 18 м.
Битрейт : 1741 Кбит/сек
Ширина : 704 пикселя
Высота : 528 пикселей
Соотношение сторон : 4: 3
Частота кадров : 25, 000 кадров/сек
Цветовое пространство : YUV
Субдискретизация насыщенности : 4: 2: 0
Битовая глубина : 8 бит
Тип развёртки : Прогрессивная
Метод сжатия : С потерями
Бит/(Пиксели*Кадры) : 0.187
Размер потока : 982 Мбайт (66%)
Библиотека кодирования : XviD 1.2.1 (UTC 2008-12-04)
Аудио #1
Идентификатор : 1
Формат : AC-3
Формат/Информация : Audio Coding 3
Расширение режима : CM (complete main)
Параметр Endianness формата : Big
Идентификатор кодека : 2000
Продолжительность : 1 ч. 18 м.
Вид битрейта : Постоянный
Битрейт : 448 Кбит/сек
Каналы : 6 каналов
Расположение каналов : Front: L C R, Side: L R, LFE
Частота : 48, 0 КГц
Метод сжатия : С потерями
Размер потока : 253 Мбайт (17%)
Выравнивание : Разделение по промежуткам
Продолжительность промежутка : 40 мс. (1, 00 видеокадр)
Время предзагрузки промежутка : 500 мс.
Аудио #2
Идентификатор : 2
Формат : AC-3
Формат/Информация : Audio Coding 3
Расширение режима : CM (complete main)
Параметр Endianness формата : Big
Идентификатор кодека : 2000
Продолжительность : 1 ч. 18 м.
Вид битрейта : Постоянный
Битрейт : 448 Кбит/сек
Каналы : 6 каналов
Расположение каналов : Front: L C R, Side: L R, LFE
Частота : 48, 0 КГц
Метод сжатия : С потерями
Размер потока : 253 Мбайт (17%)
Выравнивание : Разделение по промежуткам
Продолжительность промежутка : 40 мс. (1, 00 видеокадр)
Время предзагрузки промежутка : 500 мс

Скриншоты



Залил: AVPStudio

Онлайн видео Морозко (1964) DVDRip от New


Размер скачиваемого торрента: 1.46 GB (1567758336 Bytes)

Морозко (1964) DVDRip от New-Team
загрузка...
Рейтинг →
 (голосов: 1, оценка 5/5, голосовать можно 1 раз )

Другие торренты по теме:

  • Морозко (1964) HDTVRip от Twi7ter
  • Морозко (1964) BDRip от HQCLUB


    • Комментарии (0):

      Информация

      Информация

        Посетители, находящиеся в группе Гости, не могут оставлять комментарии в данной новости.

        ↓ Меню



        ↓ Опрос

        А Вы добавили сайт в закладки?
        Да
        Не


        Top 10 за месяц (Фильмы)