.
Авторизация | Регистрация
Хочешь лучшие торренты? Добавь свой email!
Добавить
» » Знакомство со спартанцами / Meet the Spartans (2008) HDRip от NNM-CLUB | Unrated скачать торрент бесплатно




    Знакомство со спартанцами / Meet the Spartans (2008) HDRip от NNM-CLUB | Unrated скачать торрент бесплатно

    Опубликовал: Админ | Дата: 24-12-2015, 05:01 | Просмотров: 96


    Знакомство со спартанцами/Meet the Spartans (2008) HDRip Unrated Cut

    Создали в: США, Regency Enterprises, New Regency Pictures
    Категория жанра: Комедия
    Главный режиссер: Джейсон Фридберг, Аарон Зельцер
    Актеры: Шон Магвайр, Кармен Электра, Кевин Сорбо, Дидрих Бадер, Мартин Клеббэ, Джим Пиддок, Джастин Смит, Тони Ялда, Айк Баринхолц, Кен Давшн, Майкл Арнона, Бриана Бэрран, Наташа Бласик, Леон С. Карсвелл, Хантер Клэри, Дин Кохрэн, Тим Коннолли, Дженни Коста, Джареб Доплес, Джон Ди Доменико, Робин Аткин Даунс

    Описание фильма

    Героический и безоружный Леонидас встает во главе 13 спартанцев-головорезов на защиту своей родины против вторгшихся на ее территорию персов, в рядах которых мы увидим Призрачного Гонщика, Рокки Бальбоа, Трансформеров и горбатую Пэрис Хилтон.

    Релиз подготовил: FAGOT100(NNM-CLUB)
    Время просмотра: 01: 26: 26
    Качество фильма видео: HDRip
    Перевод текста: Дублированный
    Субтитры: Отсутствуют
    Информация о видео: XviD, 704x384 (16: 9), 23.976 fps, 1 063 Kbps (0.164 bit/pixel)
    Информация о звуке: MP3, 48.0 KHz, 2 ch, 128 Kbps, CBR
    Mediainfo:
    Формат : AVI
    Формат/Информация : Audio Video Interleave
    Размер файла : 742 Мбайт
    Продолжительность : 1 ч. 26 м.
    Общий поток : 1201 Кбит/сек
    Программа кодирования : VirtualDubMod 1.5.10.3 | www.virtualdub-fr.org || (build 2550/release)
    Библиотека кодирования : VirtualDubMod build 2550/release
    Видео
    Идентификатор : 0
    Формат : MPEG-4 Visual
    Профиль формата : Advanced Simple@L5
    Параметр BVOP формата : 1
    Параметр QPel формата : Нет
    Параметр GMC формата : Без точки перехода
    Параметр матрицы формата : Выборочная
    Идентификатор кодека : XVID
    Идентификатор кодека/Подсказка : XviD
    Продолжительность : 1 ч. 26 м.
    Битрейт : 1063 Кбит/сек
    Ширина : 704 пикселя
    Высота : 384 пикселя
    Соотношение сторон : 1, 85: 1
    Частота кадров : 23, 976 кадра/сек
    Цветовое пространство : YUV
    Субдискретизация насыщенности : 4: 2: 0
    Битовая глубина : 8 бит
    Тип развёртки : Прогрессивная
    Метод сжатия : С потерями
    Бит/(Пиксели*Кадры) : 0.164
    Размер потока : 657 Мбайт (89%)
    Библиотека кодирования : XviD 73
    Аудио
    Идентификатор : 1
    Формат : MPEG Audio
    Версия формата : Version 1
    Профиль формата : Layer 3
    Идентификатор кодека : 55
    Идентификатор кодека/Подсказка : MP3
    Продолжительность : 1 ч. 26 м.
    Вид битрейта : Постоянный
    Битрейт : 128 Кбит/сек
    Каналы : 2 канала
    Частота : 48, 0 КГц
    Метод сжатия : С потерями
    Размер потока : 79, 1 Мбайт (11%)
    Выравнивание : Соединение по промежуткам
    Продолжительность промежутка : 42 мс. (1, 00 видеокадр)
    Время предзагрузки промежутка : 504 мс.
    Библиотека кодирования : LAME3.99r
    Настройки программы : -m s -V 4 -q 2 -lowpass 17 -b 128

    Скриншоты:


    Онлайн видео Знакомство со спартанцами


    Размер скачиваемого торрента: 742.15 MB (778201088 Bytes)

    Знакомство со спартанцами/Meet the Spartans (2008) HDRip от NNM-CLUB | Unrated
    загрузка...
    Рейтинг →
     (голосов: 1, оценка 5/5, голосовать можно 1 раз )

    Другие торренты по теме:

  • Знакомство со Спартанцами / Meet the Spartans (2008) BDRip 720p от KinoGadget | Расширенная версия | iPad | D


    • Комментарии (0):

      Информация

      Информация

        Посетители, находящиеся в группе Гости, не могут оставлять комментарии в данной новости.

        ↓ Меню



        ↓ Опрос

        А Вы добавили сайт в закладки?
        Да
        Не


        Top 10 за месяц (Фильмы)