.
Авторизация | Регистрация
Хочешь лучшие торренты? Добавь свой email!
Добавить
» » Бойцовский клуб / Fight Club (1999) HDRip от NNM-CLUB | Завгородний скачать торрент бесплатно




    Бойцовский клуб / Fight Club (1999) HDRip от NNM-CLUB | Завгородний скачать торрент бесплатно

    Опубликовал: Админ | Дата: 17-12-2015, 05:01 | Просмотров: 148


    Бойцовский клуб/Fight Club (1999) HDRip

    Создали в: США, Германия
    Категория жанра: Триллер, драма, криминал, боевик, экранизация
    Главный режиссер: Дэвид Финчер
    Актеры: Эдвард Нортон, Брэд Питт, Хелена Бонем Картер, Мит Лоаф, Зак Гренье, Холт МакКэллани, Джаред Лето, Эйон Бэйли, Ричмонд Аркетт, Дэвид Эндрюс, Джордж Магуайр, Эжени Бондюран, Кристина Кэбот
    Описание фильма:
    Нас сковывает страх потерять что-то. Мы боимся сделать первый шаг. Боимся стать лучше. Страдающий бессонницей клерк начинает посещать группы для больных людей, находя в них успокоение. Волею судьбы он встретил Тайлера Дёрдена, торговца мыла, с искаженным пониманием действительности. Образуя Бойцовский клуб, они привлекают людей, желающих избавиться от вечного страха перед кем-то или чем-то. Фильм снят по мотивам романа Чака Паланика Бойцовский клуб (Fight Club, 1996).

    Релиз подготовил: FAGOT100(NNM-CLUB)
    Время просмотра: 02: 19: 08
    Качество фильма видео: HDRip
    Перевод текста: Авторский (одноголосый, закадровый) В.Завгородний(Присутствует ненормативная лексика!)
    Субтитры: Отсутствуют
    Информация о видео: XviD, 720x304 (2.35: 1), 23.976 fps, 1 786 Kbps (0.340 bit/pixel)
    Информация о звуке: AC-3, 48.0 KHz, 6 ch, 448 Kbps, CBR
    MediaInfo:
    Формат : AVI
    Формат/Информация : Audio Video Interleave
    Профиль формата : OpenDML
    Размер файла : 2, 18 Гбайт
    Продолжительность : 2 ч. 19 м.
    Общий поток : 2246 Кбит/сек
    Программа кодирования : VirtualDubMod 1.5.10.3 | www.virtualdub-fr.org || (build 2550/release)
    Библиотека кодирования : VirtualDubMod build 2550/release
    Видео
    Идентификатор : 0
    Формат : MPEG-4 Visual
    Профиль формата : Advanced Simple@L5
    Параметр BVOP формата : 1
    Параметр QPel формата : Нет
    Параметр GMC формата : Без точки перехода
    Параметр матрицы формата : Выборочная
    Идентификатор кодека : XVID
    Идентификатор кодека/Подсказка : XviD
    Продолжительность : 2 ч. 19 м.
    Битрейт : 1786 Кбит/сек
    Ширина : 720 пикселей
    Высота : 304 пикселя
    Соотношение сторон : 2, 35: 1
    Частота кадров : 23, 976 кадра/сек
    Цветовое пространство : YUV
    Субдискретизация насыщенности : 4: 2: 0
    Битовая глубина : 8 бит
    Тип развёртки : Прогрессивная
    Метод сжатия : С потерями
    Бит/(Пиксели*Кадры) : 0.340
    Размер потока : 1, 74 Гбайт (80%)
    Библиотека кодирования : XviD 73
    Аудио
    Идентификатор : 1
    Формат : AC-3
    Формат/Информация : Audio Coding 3
    Расширение режима : CM (complete main)
    Параметр Endianness формата : Big
    Идентификатор кодека : 2000
    Продолжительность : 2 ч. 19 м.
    Вид битрейта : Постоянный
    Битрейт : 448 Кбит/сек
    Каналы : 6 каналов
    Расположение каналов : Front: L C R, Side: L R, LFE
    Частота : 48, 0 КГц
    Битовая глубина : 16 бит
    Метод сжатия : С потерями
    Размер потока : 446 Мбайт (20%)
    Выравнивание : Разделение по промежуткам
    Продолжительность промежутка : 42 мс. (1, 00 видеокадр)
    Время предзагрузки промежутка : 500 мс.

    Скриншоты:


    Онлайн видео Бойцовский клуб


    Размер скачиваемого торрента: 2.18 GB (2343313408 Bytes)

    Бойцовский клуб/Fight Club (1999) HDRip от NNM-CLUB | Завгородний
    загрузка...
    Рейтинг →
     (голосов: 1, оценка 5/5, голосовать можно 1 раз )

    Другие торренты по теме:

  • Бойцовский Клуб / Fight Club (1999) HDTVRip 1080p | Open Matte
  • Чак Паланик - Бойцовский клуб (2012) MP3
  • Бойцовский клуб / Fight Club (1999) BDRip 1080p | Точка Zрения
  • Бойцовский клуб / Fight Club (1999) BDRip 720p от leonardo 59 Scarabey скачать через торрент бесплатно
  • Бойцовский клуб / Fight Club (1999) BDRip 1080p | 60FPS скачать через торрент бесплатно
  • Бойцовский клуб / Fight Club (1999) HDTVRip 720p от MediaClub | D, P, A скачать через торрент бесплатно
  • Бойцовский клуб / Fight Club (1999) HDTVRip 1080p от MediaClub | D, P, A скачать через торрент бесплатно
  • Зомби: Бойцовский Клуб / Zombie Fight Club (2014) BDRip 720p от NovaLan скачать через торрент бесплатно


    • Комментарии (0):

      Информация

      Информация

        Посетители, находящиеся в группе Гости, не могут оставлять комментарии в данной новости.

        ↓ Меню



        ↓ Опрос

        А Вы добавили сайт в закладки?
        Да
        Не


        Top 10 за месяц (Фильмы)