.
Авторизация | Регистрация
Хочешь лучшие торренты? Добавь свой email!
Добавить
» » Байки из склепа: Демон ночи / Tales from the Crypt: Demon Knight (1995) BDRip-AVC от NNM-CLUB | P, P2, A скачать торрент бесплатно




    Байки из склепа: Демон ночи / Tales from the Crypt: Demon Knight (1995) BDRip-AVC от NNM-CLUB | P, P2, A скачать торрент бесплатно

    Опубликовал: Админ | Дата: 16-12-2015, 05:01 | Просмотров: 97


    Байки из склепа: Демон ночи/Tales from the Crypt: Demon Knight (1995) BDRip-AVC

    Создали в: США, Universal Pictures
    Категория жанра: Ужасы, Фантастика
    Главный режиссер: Эрнест Р. Дикерсон
    Актеры: Джон Кассир , Билли Зейн, Уильям Сэдлер, Джада Пинкетт Смит, Бренда Бакки, Си Си Эйч Паундер, Дик Миллер, Томас Хейден Чёрч, Джон Шак, Гэри Фармер, Чарльз Флайшер, Тим Де Зарн, Шерри Роуз, Райан О`Донохью, Тони Салом, Кен Болдуин, Чейси Лэйн, Реда Биби, Трэйси Бингхэм

    Описание фильма

    История Рыцаря-демона разворачивается вокруг артефакта. Артефакт - это ключ, один из семи ключей, которые могут открыть врата Ада и выпустить Тьму. В начале, когда ещё не существовало Земли как таковой, демоны пытались использовать эти семь ключей, чтобы сконцентрировать силу космоса в их руках, но после того, как Бог создал ее, он разбросал семь ключей по всей Вселенной. Спустя тысячи лет, найдя шесть ключей, демоны возвращаются на Землю, узнав, что именно там находится седьмой, последний ключ...

    Релиз подготовил: FAGOT100(NNM-CLUB)
    Время просмотра: 01: 32: 22
    Качество фильма видео: BDRip-AVC
    Перевод текста: Профессиональный (многоголосый, закадровый) х 3, профессиональный (двухголосый, закадровый), авторский (одноголосый, закадровый)
    Субтитры: Русский, английский
    Информация о видео: AVC, 1024x556 (16: 9), 23.976 fps, 2 649 Kbps (0.194 bit/pixel)
    Информация о звуке #1: AC-3, 48.0 KHz, 6 ch, 640 Kbps, CBR (Russian) - многоголосый (R5)
    Информация о звуке #2: AC-3, 48.0 KHz, 2 ch, 192 Kbps, CBR (Russian) - многоголосый (СТС)
    Информация о звуке #3: AC-3, 48.0 KHz, 2 ch, 192 Kbps, CBR (Russian) - многоголосый (ТВ-3)
    Информация о звуке #4: AC-3, 48.0 KHz, 2 ch, 192 Kbps, CBR (Russian) - двухголосый (Премьер Видео Фильм)
    Информация о звуке #5: AC-3, 48.0 KHz, 6 ch, 640 Kbps, CBR (Russian) - авторский А.Гаврилов
    Спасибо!
    За звуковые дорожки спасибо Gross1978
    Mediainfo:
    Формат : Matroska
    Версия формата : Version 2
    Размер файла : 2, 91 Гбайт
    Продолжительность : 1 ч. 32 м.
    Общий поток : 4507 Кбит/сек
    Дата кодирования : UTC 2015-05-04 05: 57: 40
    Программа кодирования : mkvmerge v5.3.0 (;I could have danced;) built on Feb 9 2012 10: 38: 07
    Библиотека кодирования : libebml v1.2.3 + libmatroska v1.3.0
    Attachment : Yes/Yes
    Видео
    Идентификатор : 1
    Формат : AVC
    Формат/Информация : Advanced Video Codec
    Профиль формата : High@L4.1
    Параметр CABAC формата : Да
    Параметр ReFrames формата : 10 кадров
    Идентификатор кодека : V_MPEG4/ISO/AVC
    Продолжительность : 1 ч. 32 м.
    Битрейт : 2649 Кбит/сек
    Ширина : 1024 пикселя
    Высота : 556 пикселей
    Соотношение сторон : 1, 85: 1
    Режим частоты кадров : Постоянный
    Частота кадров : 23, 976 кадра/сек
    Цветовое пространство : YUV
    Субдискретизация насыщенности : 4: 2: 0
    Битовая глубина : 8 бит
    Тип развёртки : Прогрессивная
    Бит/(Пиксели*Кадры) : 0.194
    Размер потока : 1, 65 Гбайт (57%)
    Библиотека кодирования : x264 core 142 r2431 ac76440
    Настройки программы : cabac=1/ref=10/deblock=1: -1: -1/analyse=0x3: 0x133/me=umh/subme=10/psy=1/psy_rd=1.00: 0.00/mixed_ref=1/me_range=32/chroma_me=1/trellis=2/8x8dct=1/cqm=0/deadzone=21, 11/fast_pskip=1/chroma_qp_offset=-2/threads=12/lookahead_threads=1/sliced_threads=0/nr=0/decimate=0/interlaced=0/bluray_compat=0/constrained_intra=0/bframes=6/b_pyramid=2/b_adapt=2/b_bias=0/direct=3/weightb=1/open_gop=0/weightp=2/keyint=240/keyint_min=23/scenecut=40/intra_refresh=0/rc=2pass/mbtree=0/bitrate=2649/ratetol=1.0/qcomp=0.60/qpmin=0/qpmax=69/qpstep=4/cplxblur=20.0/qblur=0.5/ip_ratio=1.40/pb_ratio=1.30/aq=1: 1.00
    Язык : English
    Default : Да
    Forced : Нет
    Аудио #1
    Идентификатор : 2
    Формат : AC-3
    Формат/Информация : Audio Coding 3
    Расширение режима : CM (complete main)
    Параметр Endianness формата : Big
    Идентификатор кодека : A_AC3
    Продолжительность : 1 ч. 32 м.
    Вид битрейта : Постоянный
    Битрейт : 640 Кбит/сек
    Каналы : 6 каналов
    Расположение каналов : Front: L C R, Side: L R, LFE
    Частота : 48, 0 КГц
    Битовая глубина : 16 бит
    Метод сжатия : С потерями
    Размер потока : 423 Мбайт (14%)
    Заголовок : pm (R5)
    Язык : Russian
    Default : Да
    Forced : Нет
    Аудио #2
    Идентификатор : 3
    Формат : AC-3
    Формат/Информация : Audio Coding 3
    Расширение режима : CM (complete main)
    Параметр Endianness формата : Big
    Идентификатор кодека : A_AC3
    Продолжительность : 1 ч. 32 м.
    Вид битрейта : Постоянный
    Битрейт : 192 Кбит/сек
    Каналы : 2 канала
    Расположение каналов : Front: L R
    Частота : 48, 0 КГц
    Битовая глубина : 16 бит
    Метод сжатия : С потерями
    Размер потока : 127 Мбайт (4%)
    Заголовок : pm (СТС)
    Язык : Russian
    Default : Нет
    Forced : Нет
    Аудио #3
    Идентификатор : 4
    Формат : AC-3
    Формат/Информация : Audio Coding 3
    Расширение режима : CM (complete main)
    Параметр Endianness формата : Big
    Идентификатор кодека : A_AC3
    Продолжительность : 1 ч. 32 м.
    Вид битрейта : Постоянный
    Битрейт : 192 Кбит/сек
    Каналы : 2 канала
    Расположение каналов : Front: L R
    Частота : 48, 0 КГц
    Битовая глубина : 16 бит
    Метод сжатия : С потерями
    Размер потока : 127 Мбайт (4%)
    Заголовок : pm (ТВ3)
    Язык : Russian
    Default : Нет
    Forced : Нет
    Аудио #4
    Идентификатор : 5
    Формат : AC-3
    Формат/Информация : Audio Coding 3
    Расширение режима : CM (complete main)
    Параметр Endianness формата : Big
    Идентификатор кодека : A_AC3
    Продолжительность : 1 ч. 32 м.
    Вид битрейта : Постоянный
    Битрейт : 192 Кбит/сек
    Каналы : 2 канала
    Расположение каналов : Front: L R
    Частота : 48, 0 КГц
    Битовая глубина : 16 бит
    Метод сжатия : С потерями
    Размер потока : 127 Мбайт (4%)
    Заголовок : p2 (Премьер)
    Язык : Russian
    Default : Нет
    Forced : Нет
    Аудио #5
    Идентификатор : 6
    Формат : AC-3
    Формат/Информация : Audio Coding 3
    Расширение режима : CM (complete main)
    Параметр Endianness формата : Big
    Идентификатор кодека : A_AC3
    Продолжительность : 1 ч. 32 м.
    Вид битрейта : Постоянный
    Битрейт : 640 Кбит/сек
    Каналы : 6 каналов
    Расположение каналов : Front: L C R, Side: L R, LFE
    Частота : 48, 0 КГц
    Битовая глубина : 16 бит
    Метод сжатия : С потерями
    Размер потока : 423 Мбайт (14%)
    Заголовок : A1 (Gavrilov)
    Язык : Russian
    Default : Нет
    Forced : Нет
    Текст #1
    Идентификатор : 7
    Формат : UTF-8
    Идентификатор кодека : S_TEXT/UTF8
    Идентификатор кодека/Информация : UTF-8 Plain Text
    Язык : Russian
    Default : Нет
    Forced : Нет
    Текст #2
    Идентификатор : 8
    Формат : UTF-8
    Идентификатор кодека : S_TEXT/UTF8
    Идентификатор кодека/Информация : UTF-8 Plain Text
    Язык : English
    Default : Нет
    Forced : Нет
    Меню
    00: 00: 00.000 : en: 00: 00: 00.000
    00: 04: 51.374 : en: 00: 04: 51.374
    00: 08: 14.826 : en: 00: 08: 14.826
    00: 11: 24.850 : en: 00: 11: 24.850
    00: 15: 30.011 : en: 00: 15: 30.011
    00: 19: 13.861 : en: 00: 19: 13.861
    00: 28: 28.539 : en: 00: 28: 28.539
    00: 37: 01.510 : en: 00: 37: 01.510
    00: 44: 48.893 : en: 00: 44: 48.893
    00: 53: 28.038 : en: 00: 53: 28.038
    00: 58: 29.880 : en: 00: 58: 29.880
    01: 01: 43.990 : en: 01: 01: 43.990
    01: 07: 57.322 : en: 01: 07: 57.322
    01: 15: 11.840 : en: 01: 15: 11.840
    01: 22: 48.921 : en: 01: 22: 48.921
    01: 26: 44.908 : en: 01: 26: 44.908

    Скриншоты:


    Онлайн видео Байки из склепа: Демон ночи


    Размер скачиваемого торрента: 2.91 GB (3122880688 Bytes)

    Байки из склепа: Демон ночи/Tales from the Crypt: Demon Knight (1995) BDRip-AVC от NNM-CLUB | P, P2, A
    загрузка...
    Рейтинг →
     (голосов: 1, оценка 4/5, голосовать можно 1 раз )

    Другие торренты по теме:

  • Байки из склепа: Демон ночи / Tales from the Crypt: Demon Knight (1995) DVDRip | Р, А
  • Байки из склепа: Кровавый бордель / Bordello of Blood (1996) HDTVRip | P
  • Байки из склепа / Tales From The Crypt (1989) DVDRip от Brazzass
  • Байки из склепа / Tales from the Crypt (1989-1990) DVDRip | A
  • Байки Из Склепа: Кровавый Бордель / Tales from the Crypt: Bordello of Blood (1996) DVDRip от Андрей1991
  • OST - Байки из склепа / Tales From The Crypt (1992) MP3 скачать через торрент бесплатно
  • Байки из склепа: Демон ночи / Tales from the Crypt: Demon Knight (1995) BDRip-AVC | P, P2, A
  • День космических историй. Байки из склепа (2016) SATRip


    • Комментарии (0):

      Информация

      Информация

        Посетители, находящиеся в группе Гости, не могут оставлять комментарии в данной новости.

        ↓ Меню



        ↓ Опрос

        А Вы добавили сайт в закладки?
        Да
        Не


        Top 10 за месяц (Фильмы)