.
Авторизация | Регистрация
Хочешь лучшие торренты? Добавь свой email!
Добавить
» » Другая жизнь женщины / La vie dune autre (2012) BDRip 1080p | P скачать торрент бесплатно




    Другая жизнь женщины / La vie dune autre (2012) BDRip 1080p | P скачать торрент бесплатно

    Опубликовал: Админ | Дата: 16-12-2015, 05:01 | Просмотров: 105



    Детально о кино
    Русское название: Другая жизнь женщины
    Русское название в мировом прокате: La vie d;une autre
    Создали в: 2012
    Категория жанра: драма, мелодрама, комедия, детектив
    Главный режиссер: Сильви Тестю

    Актеры
    Жюльет Бинош, Матьё Кассовиц, Ор Атика, Даниель Лебрюн, Вернон Добчефф, Иви Дашари-Ле Беон, Франсуа Берлеан, Мари-Кристин Адам, Николас Карпентье, Альберт Спайнер

    Сюжет фильма

    Мари исполнилось 40. Но странный эффект: однажды утром она проснулась с ощущением, что 15 последних лет её жизни как не бывало. А та любовь, которая на самом деле уже подходит к концу — до развода 4 дня — еще только начинается. Можно ли вернуть прошлое за 4 дня и что такое ты, прежняя, застенчивая провинциалка в роли преуспевающей бизнес-леди?

    Снималось в: Франция, Люксембург, Бельгия
    Киностудия: ARP S?lection, Bruxelles Capitale, Canal+ fr
    Время просмотра: 01: 37: 33
    Перевод текста: Профессиональный (многоголосый, закадровый) Мистерия звука
    Рип от msltel
    Файл
    Тип видео: Matroska
    Информация о видео: 1920x818 at 23.976 fps, x264@L4.1, ~12600 kbps avg
    Информация о звуке#1: Russian: 48 kHz, AC3, 2/0 (L, R) ch, ~224.00 kbps avg |Многоголосый закадровый, Мистерия звука|
    Информация о звуке#2: French: 48 kHz, DTS, 3/2 (L, C, R, l, r) + LFE ch, ~1509.00 kbps avg
    Субтитры: Russian (kitmur)
    MI
    Общее
    Уникальный идентификатор : 186667528549952042097764525162110480512 (0x8C6EDBB8C1AD1CAEB8E96E3CC8957080)
    Полное имя : Другая жизнь женщины.2012.BDRip.1080p.mkv
    Формат : Matroska
    Версия формата : Version 4/Version 2
    Размер файла : 9, 97 Гбайт
    Продолжительность : 1 ч. 37 м.
    Общий поток : 14, 6 Мбит/сек
    Дата кодирования : UTC 2015-12-15 04: 06: 58
    Программа кодирования : mkvmerge v8.2.0 (;World of Adventure;) 64bit
    Библиотека кодирования : libebml v1.3.1 + libmatroska v1.4.2
    Видео
    Идентификатор : 1
    Формат : AVC
    Формат/Информация : Advanced Video Codec
    Профиль формата : High@L4.1
    Параметр CABAC формата : Да
    Параметр ReFrames формата : 4 кадра
    Идентификатор кодека : V_MPEG4/ISO/AVC
    Продолжительность : 1 ч. 37 м.
    Битрейт : 12, 6 Мбит/сек
    Ширина : 1920 пикселей
    Высота : 818 пикселей
    Соотношение сторон : 2, 35: 1
    Режим частоты кадров : Постоянный
    Частота кадров : 23, 976 кадра/сек
    Цветовое пространство : YUV
    Субдискретизация насыщенности : 4: 2: 0
    Битовая глубина : 8 бит
    Тип развёртки : Прогрессивная
    Бит/(Пиксели*Кадры) : 0.335
    Размер потока : 8, 59 Гбайт (86%)
    Заголовок : BDRip by msltel
    Библиотека кодирования : x264 core 146 r2538 121396c
    Настройки программы : cabac=1/ref=4/deblock=1: -1: -1/analyse=0x3: 0x113/me=umh/subme=10/psy=1/psy_rd=1.00: 0.15/mixed_ref=1/me_range=32/chroma_me=1/trellis=2/8x8dct=1/cqm=0/deadzone=21, 11/fast_pskip=1/chroma_qp_offset=-3/threads=6/lookahead_threads=1/sliced_threads=0/nr=0/decimate=1/interlaced=0/bluray_compat=0/constrained_intra=0/bframes=8/b_pyramid=2/b_adapt=2/b_bias=0/direct=1/weightb=1/open_gop=1/weightp=2/keyint=230/keyint_min=23/scenecut=40/intra_refresh=0/rc_lookahead=40/rc=crf/mbtree=0/crf=16.3/qcomp=0.60/qpmin=0/qpmax=69/qpstep=4/vbv_maxrate=40000/vbv_bufsize=50000/crf_max=0.0/nal_hrd=none/filler=0/ip_ratio=1.40/pb_ratio=1.30/aq=1: 1.00
    Язык : French
    Default : Да
    Forced : Нет
    Аудио #1
    Идентификатор : 2
    Формат : AC-3
    Формат/Информация : Audio Coding 3
    Расширение режима : CM (complete main)
    Параметр Endianness формата : Big
    Идентификатор кодека : A_AC3
    Продолжительность : 1 ч. 37 м.
    Вид битрейта : Постоянный
    Битрейт : 224 Кбит/сек
    Каналы : 2 канала
    Расположение каналов : Front: L R
    Частота : 48, 0 КГц
    Метод сжатия : С потерями
    Размер потока : 156 Мбайт (2%)
    Заголовок : MVO
    Язык : Russian
    Default : Да
    Forced : Нет
    Аудио #2
    Идентификатор : 3
    Формат : DTS
    Формат/Информация : Digital Theater Systems
    Режим : 16
    Параметр Endianness формата : Big
    Идентификатор кодека : A_DTS
    Продолжительность : 1 ч. 37 м.
    Вид битрейта : Постоянный
    Битрейт : 1509 Кбит/сек
    Каналы : 6 каналов
    Расположение каналов : Front: L C R, Side: L R, LFE
    Частота : 48, 0 КГц
    Битовая глубина : 16 бит
    Метод сжатия : С потерями
    Размер потока : 1, 03 Гбайт (10%)
    Заголовок : Original
    Язык : French
    Default : Нет
    Forced : Нет
    Текст
    Идентификатор : 4
    Формат : UTF-8
    Идентификатор кодека : S_TEXT/UTF8
    Идентификатор кодека/Информация : UTF-8 Plain Text
    Заголовок : русский (kitmur)
    Язык : Russian
    Default : Нет
    Forced : Нет
    Скриншоты




    Онлайн видео Другая жизнь женщины


    Размер скачиваемого торрента: 9.97 GB (10703472417 Bytes)

    Другая жизнь женщины/La vie dune autre (2012) BDRip 1080p | P
    загрузка...
    Рейтинг →
     (голосов: 1, оценка 5/5, голосовать можно 1 раз )

    Другие торренты по теме:

  • Катерина-4. Другая жизнь (2013) SATRip
  • Катерина-4. Другая жизнь (2013) HDTVRip 720p
  • Катерина-4. Другая жизнь (2013) HDTV 1080i
  • Другая жизнь женщины / La vie dune autre (2012) DVDRip от Киномагия | P
  • Катерина-4. Другая жизнь (2013) DVB
  • Пыль - Другая Жизнь (2013) MP3
  • Другая жизнь Ришара Кемпа / Lautre vie de Richard Kemp (2013) HDRip | L1 скачать через торрент бесплатно
  • Другая жизнь Ришара Кемпа / Lautre vie de Richard Kemp (2013) BDRip 720p | Xixidok скачать через торрент бесплатно


    • Комментарии (0):

      Информация

      Информация

        Посетители, находящиеся в группе Гости, не могут оставлять комментарии в данной новости.

        ↓ Меню



        ↓ Опрос

        А Вы добавили сайт в закладки?
        Да
        Не


        Top 10 за месяц (Фильмы)