.
Авторизация | Регистрация
Хочешь лучшие торренты? Добавь свой email!
Добавить
» » Прогулка среди могил / A Walk Among the Tombstones (2014) BDRip 720p от NNM-CLUB | A, P, L2 скачать торрент бесплатно




    Прогулка среди могил / A Walk Among the Tombstones (2014) BDRip 720p от NNM-CLUB | A, P, L2 скачать торрент бесплатно

    Опубликовал: Админ | Дата: 14-12-2015, 05:01 | Просмотров: 119


    Прогулка среди могил/A Walk Among the Tombstones (2014) BDRip
    Люди боятся не того, чего стоит бояться

    Создали в: США, 1984 Private Defense Contractors, Cross Creek Pictures, Da Vinci Media Ventures, Double Feature Films
    Категория жанра: Триллер, Криминал, Детектив
    Главный режиссер: Скотт Фрэнк
    Актеры: Лиам Нисон, Дэн Стивенс, Дэвид Харбор, Бойд Холбрук, Себастьян Роше, Астро, Уитни Эйбл, Стефани Андужар, Марина Скверсьяти, Марк Консуэлос
    Описание фильма:
    Нью-Йорк охватывает волна странных и страшных убийств. Муж одной из жертв, наркобарон, нанимает бывшего полицейского, чтобы тот добрался до убийцы жены. Частный детектив Скаддер видит то, чего не замечает полиция, и проникает туда, куда копы боятся даже сунуть нос. Распутывая дьявольские преступления, он понимает, что люди боятся совсем не того.

    Релиз подготовил: FAGOT100(NNM-CLUB)
    Время просмотра: 01: 54: 05
    Качество фильма видео: BDRip 720p
    Перевод текста: Авторский (одноголосый, закадровый) х2, профессиональный (многоголосый, закадровый), любительский (двухголосый, закадровый)
    Язык субтитров: Английские
    Вид субтитров: Вшитые, отключаемые
    Сэмпл
    Информация о видео: AVC, 1280x536 (2.35: 1), 23.976 fps, 3 013 Kbps (0.183 bit/pixel)
    Информация о звуке #1: AC-3, 48.0 KHz, 6 ch, 640 Kbps, CBR (Russian) - авторский А.Гаврилов
    Информация о звуке #2: AC-3, 48.0 KHz, 6 ch, 448 Kbps, CBR (Russian) - авторский Д.Есарев(нецензурный)
    Информация о звуке #3: AC-3, 48.0 KHz, 2 ch, 384 Kbps, CBR (Russian) - многоголосый
    Информация о звуке #4: AC-3, 48.0 KHz, 2 ch, 384 Kbps, CBR (Russian) - двухголосый (Сладкая парочка)
    Информация о звуке #5: AC-3, 48.0 KHz, 6 ch, 448 Kbps, CBR (English) - оригинал
    log x264
    x264 info: frame I: 1289 Avg QP: 13.75 size: 87542 PSNR Mean Y: 49.25 U: 52.42 V: 52.92 Avg: 49.99 Global: 49.31
    x264 info: frame P: 31293 Avg QP: 15.87 size: 34048 PSNR Mean Y: 47.77 U: 53.00 V: 53.46 Avg: 48.70 Global: 47.77
    x264 info: frame B: 130945 Avg QP: 17.61 size: 11250 PSNR Mean Y: 46.80 U: 51.77 V: 52.39 Avg: 47.78 Global: 46.93
    x264 info: consecutive B-frames: 1.4% 1.2% 5.0% 12.4% 14.6% 46.7% 8.6% 3.6% 6.4%
    Mediainfo:
    Формат : Matroska
    Версия формата : Version 2
    Размер файла : 4, 30 Гбайт
    Продолжительность : 1 ч. 53 м.
    Общий поток : 5416 Кбит/сек
    Дата кодирования : UTC 2015-12-12 23: 16: 14
    Программа кодирования : mkvmerge v5.3.0 (;I could have danced;) built on Feb 9 2012 10: 38: 07
    Библиотека кодирования : libebml v1.2.3 + libmatroska v1.3.0
    Attachment : Yes
    Видео
    Идентификатор : 1
    Формат : AVC
    Формат/Информация : Advanced Video Codec
    Профиль формата : High@L4.1
    Параметр CABAC формата : Да
    Параметр ReFrames формата : 10 кадров
    Идентификатор кодека : V_MPEG4/ISO/AVC
    Продолжительность : 1 ч. 53 м.
    Битрейт : 3004 Кбит/сек
    Ширина : 1280 пикселей
    Высота : 536 пикселей
    Соотношение сторон : 2, 40: 1
    Режим частоты кадров : Постоянный
    Частота кадров : 23, 976 кадра/сек
    Цветовое пространство : YUV
    Субдискретизация насыщенности : 4: 2: 0
    Битовая глубина : 8 бит
    Тип развёртки : Прогрессивная
    Бит/(Пиксели*Кадры) : 0.183
    Размер потока : 2, 39 Гбайт (55%)
    Библиотека кодирования : x264 core 146 r2538 121396c
    Настройки программы : cabac=1/ref=10/deblock=1: -3: -3/analyse=0x3: 0x133/me=umh/subme=11/psy=1/psy_rd=1.00: 0.00/mixed_ref=1/me_range=32/chroma_me=1/trellis=2/8x8dct=1/cqm=0/deadzone=21, 11/fast_pskip=0/chroma_qp_offset=-2/threads=2/lookahead_threads=2/sliced_threads=0/nr=0/decimate=0/interlaced=0/bluray_compat=0/constrained_intra=0/bframes=8/b_pyramid=2/b_adapt=2/b_bias=0/direct=3/weightb=1/open_gop=0/weightp=2/keyint=240/keyint_min=23/scenecut=40/intra_refresh=0/rc=crf/mbtree=0/crf=17.0/qcomp=0.60/qpmin=0/qpmax=69/qpstep=4/ip_ratio=1.40/pb_ratio=1.30/aq=1: 0.80
    Default : Да
    Forced : Нет
    Аудио #1
    Идентификатор : 2
    Формат : AC-3
    Формат/Информация : Audio Coding 3
    Расширение режима : CM (complete main)
    Параметр Endianness формата : Big
    Идентификатор кодека : A_AC3
    Продолжительность : 1 ч. 53 м.
    Вид битрейта : Постоянный
    Битрейт : 640 Кбит/сек
    Каналы : 6 каналов
    Расположение каналов : Front: L C R, Side: L R, LFE
    Частота : 48, 0 КГц
    Битовая глубина : 16 бит
    Метод сжатия : С потерями
    Размер потока : 520 Мбайт (12%)
    Заголовок : Авторский А.Гаврилов
    Язык : Russian
    Default : Да
    Forced : Нет
    Аудио #2
    Идентификатор : 3
    Формат : AC-3
    Формат/Информация : Audio Coding 3
    Расширение режима : CM (complete main)
    Параметр Endianness формата : Big
    Идентификатор кодека : A_AC3
    Продолжительность : 1 ч. 53 м.
    Вид битрейта : Постоянный
    Битрейт : 448 Кбит/сек
    Каналы : 6 каналов
    Расположение каналов : Front: L C R, Side: L R, LFE
    Частота : 48, 0 КГц
    Битовая глубина : 16 бит
    Метод сжатия : С потерями
    Размер потока : 364 Мбайт (8%)
    Заголовок : Авторский Д.Есарев (ненормативный)
    Язык : Russian
    Default : Нет
    Forced : Нет
    Аудио #3
    Идентификатор : 4
    Формат : AC-3
    Формат/Информация : Audio Coding 3
    Расширение режима : CM (complete main)
    Параметр Endianness формата : Big
    Идентификатор кодека : A_AC3
    Продолжительность : 1 ч. 53 м.
    Вид битрейта : Постоянный
    Битрейт : 384 Кбит/сек
    Каналы : 2 канала
    Расположение каналов : Front: L R
    Частота : 48, 0 КГц
    Битовая глубина : 16 бит
    Метод сжатия : С потерями
    Размер потока : 312 Мбайт (7%)
    Заголовок : Профессиональны многоголосый
    Язык : Russian
    Default : Нет
    Forced : Нет
    Аудио #4
    Идентификатор : 5
    Формат : AC-3
    Формат/Информация : Audio Coding 3
    Расширение режима : CM (complete main)
    Параметр Endianness формата : Big
    Идентификатор кодека : A_AC3
    Продолжительность : 1 ч. 53 м.
    Вид битрейта : Постоянный
    Битрейт : 384 Кбит/сек
    Каналы : 2 канала
    Расположение каналов : Front: L R
    Частота : 48, 0 КГц
    Битовая глубина : 16 бит
    Метод сжатия : С потерями
    Размер потока : 312 Мбайт (7%)
    Заголовок : Любительский двухголосый (Сладкая парочка)
    Язык : Russian
    Default : Нет
    Forced : Нет
    Аудио #5
    Идентификатор : 6
    Формат : AC-3
    Формат/Информация : Audio Coding 3
    Расширение режима : CM (complete main)
    Параметр Endianness формата : Big
    Идентификатор кодека : A_AC3
    Продолжительность : 1 ч. 53 м.
    Вид битрейта : Постоянный
    Битрейт : 448 Кбит/сек
    Каналы : 6 каналов
    Расположение каналов : Front: L C R, Side: L R, LFE
    Частота : 48, 0 КГц
    Битовая глубина : 16 бит
    Метод сжатия : С потерями
    Размер потока : 364 Мбайт (8%)
    Язык : English
    Default : Нет
    Forced : Нет
    Текст
    Идентификатор : 7
    Формат : UTF-8
    Идентификатор кодека : S_TEXT/UTF8
    Идентификатор кодека/Информация : UTF-8 Plain Text
    Язык : English
    Default : Нет
    Forced : Нет
    Меню
    00: 00: 00.000 : : Chapter 01
    00: 05: 41.341 : : Chapter 02
    00: 11: 59.634 : : Chapter 03
    00: 21: 14.355 : : Chapter 04
    00: 27: 38.155 : : Chapter 05
    00: 37: 10.143 : : Chapter 06
    00: 44: 07.728 : : Chapter 07
    00: 52: 10.126 : : Chapter 08
    00: 59: 04.791 : : Chapter 09
    01: 07: 21.077 : : Chapter 10
    01: 12: 07.363 : : Chapter 11
    01: 20: 44.588 : : Chapter 12
    01: 28: 07.073 : : Chapter 13
    01: 34: 37.380 : : Chapter 14
    01: 42: 44.365 : : Chapter 15
    01: 49: 46.704 : : Chapter 16

    Скриншоты:


    Онлайн видео Прогулка среди могил


    Размер скачиваемого торрента: 4.30 GB (4618281168 Bytes)

    Прогулка среди могил/A Walk Among the Tombstones (2014) BDRip 720p от NNM-CLUB | A, P, L2
    загрузка...
    Рейтинг →
     (голосов: 1, оценка 5/5, голосовать можно 1 раз )

    Другие торренты по теме:

  • Прогулка среди могил / A Walk Among the Tombstones скачать через торрент бесплатно
  • Прогулка среди могил / A Walk Among the Tombstones (2014) WEBRip | L2 скачать через торрент бесплатно
  • Прогулка среди могил / A Walk Among the Tombstones (2014) BDRip 720p | L2 скачать через торрент бесплатно
  • Прогулка среди могил / A Walk Among the Tombstones / 2014 / АП (Есарев) / Blu-Ray (1080p)
  • Прогулка среди могил / A Walk Among the Tombstones (2014) HDRip | P


    • Комментарии (0):

      Информация

      Информация

        Посетители, находящиеся в группе Гости, не могут оставлять комментарии в данной новости.

        ↓ Меню



        ↓ Опрос

        А Вы добавили сайт в закладки?
        Да
        Не


        Top 10 за месяц (Фильмы)