.
Авторизация | Регистрация
Хочешь лучшие торренты? Добавь свой email!
Добавить
» » Слуга народа / Слуга народу (2015) WEB-DL 720p от UAGet скачать торрент бесплатно




    Слуга народа / Слуга народу (2015) WEB-DL 720p от UAGet скачать торрент бесплатно

    Опубликовал: Админ | Дата: 11-12-2015, 13:38 | Просмотров: 193



    Детально о кино
    Русское название: Слуга народа
    Русское название в мировом прокате: Слуга народу
    Создали в: 2015
    Категория жанра: комедия
    Главный режиссер: Алексей Кирющенко

    Актеры
    Владимир Зеленский, Анна Кошмал, Наталия Сумская, Виктор Сарайкин, Екатерина Кистень, Станислав Боклан, Евгений Кошевой, Александр Пикалов, Юрий Крапов, Елена Кравец


    Сюжет фильма

    Что будет, если президентом станет обычный человек из народа? Новый, честный, принципиальный и, самое главное, – умный человек. Именно эти мысли однажды сподвигли народ избрать президентом простого учителя истории Василия Голобородько... Неожиданно для всех страна получила гаранта, который живет в обычной квартире. Который спокойно идет по улице без армии охранников и запросто ездит на маршрутке, который получает скромную зарплату и иногда занимает у друга до зарплаты. В общем, который живет – как все. Ведь он точно знает - когда царь начнет жить как простой учитель, вскоре простой учитель заживет как царь! И пускай у него нет серебряных пуль и осинового кола, каждое утро Василий Петрович выходит на борьбу с нечистой силой и без устали воюет с армадой коррумпированных и насквозь прогнивших чинуш, разгребает авгиевы конюшни государства. Правда, он не учел одного. Система, где все привыкли безбожно воровать, откатывать и дерибанить – будет против такой заботы о народе.
    Официальный сайт
    Снималось в: Украина
    Киностудия: Студия Квартал-95
    Время просмотра: эпизод ~25 мин.
    Перевод текста: русский/украинский (оригинал)
    Файл
    Кодек для видео: h.264
    Качество фильма: WEB-DL 720p
    Информация о видео: h264 (High), yuv420p, 1280x720 PAR 1: 1 DAR 16: 9, ~1700 kb/s, 25 fps, 25 tbr, 25 tbn, 50 tbc
    Информация о звуке: AAC, 44100 Hz, stereo, s16, 192 kb/s
    Скриншоты
    MediaInfo всей раздачи
    General
    Complete name : /mnt/disk_d/Video/Слуга народа (сезон любимого сериала 1) (2015) WEB-DL 720p/Слуга народа - 1 и 2 серии.mp4
    Format : MPEG-4
    Format profile : Base Media/Version 2
    Codec ID : mp42
    File size : 560 MiB
    Duration : 43mn 21s
    Overall bit rate mode : Variable
    Overall bit rate : 1 805 Kbps
    Encoded date : UTC 2015-11-18 15: 15: 34
    Tagged date : UTC 2015-11-18 15: 15: 34
    gsst : 0
    gstd : 2601330
    gssd : BD47134A5
    gshh : r2---sn-03guxaxjvh-3c26.googlevideo.com
    Video
    ID : 1
    Format : AVC
    Format/Info : Advanced Video Codec
    Format profile : High@L3.1
    Format settings, CABAC : Yes
    Format settings, ReFrames : 1 frame
    Format settings, GOP : M=1, N=60
    Codec ID : avc1
    Codec ID/Info : Advanced Video Coding
    Duration : 43mn 21s
    Bit rate : 1 611 Kbps
    Maximum bit rate : 5 998 Kbps
    Width : 1 280 pixels
    Height : 720 pixels
    Display aspect ratio : 16: 9
    Frame rate mode : Constant
    Frame rate : 25.000 fps
    Color space : YUV
    Chroma subsampling : 4: 2: 0
    Bit depth : 8 bits
    Scan type : Progressive
    Bits/(Pixel*Frame) : 0.070
    Stream size : 500 MiB (89%)
    Encoded date : UTC 1904-01-01 00: 00: 00
    Tagged date : UTC 2015-11-18 15: 16: 18
    Color range : Limited
    Color primaries : BT.709
    Transfer characteristics : BT.709
    Matrix coefficients : BT.709
    Audio
    ID : 2
    Format : AAC
    Format/Info : Advanced Audio Codec
    Format profile : LC
    Codec ID : 40
    Duration : 43mn 21s
    Bit rate mode : Variable
    Bit rate : 192 Kbps
    Maximum bit rate : 202 Kbps
    Channel(s) : 2 channels
    Channel positions : Front: L R
    Sampling rate : 44.1 KHz
    Compression mode : Lossy
    Stream size : 59.5 MiB (11%)
    Title : IsoMedia File Produced by Google, 5-11-2011
    Language : English
    Encoded date : UTC 2015-11-18 15: 16: 02
    Tagged date : UTC 2015-11-18 15: 16: 18
    General
    Complete name : /mnt/disk_d/Video/Слуга народа (сезон любимого сериала 1) (2015) WEB-DL 720p/Слуга народа - 10 серия.mp4
    Format : MPEG-4
    Format profile : Base Media/Version 2
    Codec ID : mp42
    File size : 316 MiB
    Duration : 24mn 6s
    Overall bit rate mode : Variable
    Overall bit rate : 1 832 Kbps
    Encoded date : UTC 2015-11-23 18: 16: 17
    Tagged date : UTC 2015-11-23 18: 16: 17
    gsst : 0
    gstd : 1446463
    gssd : BD47134A6
    gshh : r3---sn-03guxaxjvh-3c26.googlevideo.com
    Video
    ID : 1
    Format : AVC
    Format/Info : Advanced Video Codec
    Format profile : High@L3.1
    Format settings, CABAC : Yes
    Format settings, ReFrames : 1 frame
    Format settings, GOP : M=1, N=60
    Codec ID : avc1
    Codec ID/Info : Advanced Video Coding
    Duration : 24mn 6s
    Bit rate : 1 638 Kbps
    Maximum bit rate : 5 883 Kbps
    Width : 1 280 pixels
    Height : 720 pixels
    Display aspect ratio : 16: 9
    Frame rate mode : Constant
    Frame rate : 25.000 fps
    Color space : YUV
    Chroma subsampling : 4: 2: 0
    Bit depth : 8 bits
    Scan type : Progressive
    Bits/(Pixel*Frame) : 0.071
    Stream size : 282 MiB (89%)
    Encoded date : UTC 1904-01-01 00: 00: 00
    Tagged date : UTC 2015-11-23 18: 16: 37
    Audio
    ID : 2
    Format : AAC
    Format/Info : Advanced Audio Codec
    Format profile : LC
    Codec ID : 40
    Duration : 24mn 6s
    Bit rate mode : Variable
    Bit rate : 192 Kbps
    Maximum bit rate : 202 Kbps
    Channel(s) : 2 channels
    Channel positions : Front: L R
    Sampling rate : 44.1 KHz
    Compression mode : Lossy
    Stream size : 33.1 MiB (10%)
    Title : IsoMedia File Produced by Google, 5-11-2011
    Language : English
    Encoded date : UTC 2015-11-23 18: 16: 23
    Tagged date : UTC 2015-11-23 18: 16: 37
    General
    Complete name : /mnt/disk_d/Video/Слуга народа (сезон любимого сериала 1) (2015) WEB-DL 720p/Слуга народа - 11 серия.mp4
    Format : MPEG-4
    Format profile : Base Media/Version 2
    Codec ID : mp42
    File size : 355 MiB
    Duration : 25mn 44s
    Overall bit rate mode : Variable
    Overall bit rate : 1 931 Kbps
    Encoded date : UTC 2015-11-24 17: 51: 52
    Tagged date : UTC 2015-11-24 17: 51: 52
    gsst : 0
    gstd : 1544173
    gssd : BD4713484
    gshh : r1---sn-03guxaxjvh-3c2d.googlevideo.com
    Video
    ID : 1
    Format : AVC
    Format/Info : Advanced Video Codec
    Format profile : High@L3.1
    Format settings, CABAC : Yes
    Format settings, ReFrames : 1 frame
    Format settings, GOP : M=1, N=60
    Codec ID : avc1
    Codec ID/Info : Advanced Video Coding
    Duration : 25mn 44s
    Bit rate : 1 737 Kbps
    Maximum bit rate : 7 681 Kbps
    Width : 1 280 pixels
    Height : 720 pixels
    Display aspect ratio : 16: 9
    Frame rate mode : Constant
    Frame rate : 25.000 fps
    Color space : YUV
    Chroma subsampling : 4: 2: 0
    Bit depth : 8 bits
    Scan type : Progressive
    Bits/(Pixel*Frame) : 0.075
    Stream size : 320 MiB (90%)
    Encoded date : UTC 1904-01-01 00: 00: 00
    Tagged date : UTC 2015-11-24 17: 52: 45
    Audio
    ID : 2
    Format : AAC
    Format/Info : Advanced Audio Codec
    Format profile : LC
    Codec ID : 40
    Duration : 25mn 44s
    Bit rate mode : Variable
    Bit rate : 192 Kbps
    Maximum bit rate : 201 Kbps
    Channel(s) : 2 channels
    Channel positions : Front: L R
    Sampling rate : 44.1 KHz
    Compression mode : Lossy
    Stream size : 35.3 MiB (10%)
    Title : IsoMedia File Produced by Google, 5-11-2011
    Language : English
    Encoded date : UTC 2015-11-24 17: 52: 17
    Tagged date : UTC 2015-11-24 17: 52: 45
    General
    Complete name : /mnt/disk_d/Video/Слуга народа (сезон любимого сериала 1) (2015) WEB-DL 720p/Слуга народа - 12 серия.mp4
    Format : MPEG-4
    Format profile : Base Media/Version 2
    Codec ID : mp42
    File size : 340 MiB
    Duration : 24mn 57s
    Overall bit rate mode : Variable
    Overall bit rate : 1 907 Kbps
    Encoded date : UTC 2015-11-24 17: 55: 01
    Tagged date : UTC 2015-11-24 17: 55: 01
    gsst : 0
    gstd : 1497385
    gssd : BD47131C7
    gshh : r4---sn-03guxaxjvh-3c2z.googlevideo.com
    Video
    ID : 1
    Format : AVC
    Format/Info : Advanced Video Codec
    Format profile : High@L3.1
    Format settings, CABAC : Yes
    Format settings, ReFrames : 1 frame
    Format settings, GOP : M=1, N=60
    Codec ID : avc1
    Codec ID/Info : Advanced Video Coding
    Duration : 24mn 57s
    Bit rate : 1 713 Kbps
    Maximum bit rate : 5 848 Kbps
    Width : 1 280 pixels
    Height : 720 pixels
    Display aspect ratio : 16: 9
    Frame rate mode : Constant
    Frame rate : 25.000 fps
    Color space : YUV
    Chroma subsampling : 4: 2: 0
    Bit depth : 8 bits
    Scan type : Progressive
    Bits/(Pixel*Frame) : 0.074
    Stream size : 306 MiB (90%)
    Encoded date : UTC 1904-01-01 00: 00: 00
    Tagged date : UTC 2015-11-24 17: 55: 14
    Audio
    ID : 2
    Format : AAC
    Format/Info : Advanced Audio Codec
    Format profile : LC
    Codec ID : 40
    Duration : 24mn 57s
    Bit rate mode : Variable
    Bit rate : 192 Kbps
    Maximum bit rate : 201 Kbps
    Channel(s) : 2 channels
    Channel positions : Front: L R
    Sampling rate : 44.1 KHz
    Compression mode : Lossy
    Stream size : 34.3 MiB (10%)
    Title : IsoMedia File Produced by Google, 5-11-2011
    Language : English
    Encoded date : UTC 2015-11-24 17: 55: 09
    Tagged date : UTC 2015-11-24 17: 55: 14
    General
    Complete name : /mnt/disk_d/Video/Слуга народа (сезон любимого сериала 1) (2015) WEB-DL 720p/Слуга народа - 13 серия.mp4
    Format : MPEG-4
    Format profile : Base Media/Version 2
    Codec ID : mp42
    File size : 338 MiB
    Duration : 25mn 38s
    Overall bit rate mode : Variable
    Overall bit rate : 1 843 Kbps
    Encoded date : UTC 2015-11-25 18: 15: 33
    Tagged date : UTC 2015-11-25 18: 15: 33
    gsst : 0
    gstd : 1539018
    gssd : BD47131C7
    gshh : r4---sn-03guxaxjvh-3c2z.googlevideo.com
    Video
    ID : 1
    Format : AVC
    Format/Info : Advanced Video Codec
    Format profile : High@L3.1
    Format settings, CABAC : Yes
    Format settings, ReFrames : 1 frame
    Format settings, GOP : M=1, N=60
    Codec ID : avc1
    Codec ID/Info : Advanced Video Coding
    Duration : 25mn 38s
    Bit rate : 1 648 Kbps
    Maximum bit rate : 6 366 Kbps
    Width : 1 280 pixels
    Height : 720 pixels
    Display aspect ratio : 16: 9
    Frame rate mode : Constant
    Frame rate : 25.000 fps
    Color space : YUV
    Chroma subsampling : 4: 2: 0
    Bit depth : 8 bits
    Scan type : Progressive
    Bits/(Pixel*Frame) : 0.072
    Stream size : 302 MiB (89%)
    Encoded date : UTC 1904-01-01 00: 00: 00
    Tagged date : UTC 2015-11-25 18: 16: 05
    Audio
    ID : 2
    Format : AAC
    Format/Info : Advanced Audio Codec
    Format profile : LC
    Codec ID : 40
    Duration : 25mn 38s
    Bit rate mode : Variable
    Bit rate : 192 Kbps
    Maximum bit rate : 202 Kbps
    Channel(s) : 2 channels
    Channel positions : Front: L R
    Sampling rate : 44.1 KHz
    Compression mode : Lossy
    Stream size : 35.2 MiB (10%)
    Title : IsoMedia File Produced by Google, 5-11-2011
    Language : English
    Encoded date : UTC 2015-11-25 18: 15: 46
    Tagged date : UTC 2015-11-25 18: 16: 05
    General
    Complete name : /mnt/disk_d/Video/Слуга народа (сезон любимого сериала 1) (2015) WEB-DL 720p/Слуга народа - 14 серия.mp4
    Format : MPEG-4
    Format profile : Base Media/Version 2
    Codec ID : mp42
    File size : 336 MiB
    Duration : 24mn 42s
    Overall bit rate mode : Variable
    Overall bit rate : 1 902 Kbps
    Encoded date : UTC 2015-11-25 22: 55: 31
    Tagged date : UTC 2015-11-25 22: 55: 31
    gsst : 0
    gstd : 1482941
    gssd : BD4713184
    gshh : r1---sn-03guxaxjvh-3c2s.googlevideo.com
    Video
    ID : 1
    Format : AVC
    Format/Info : Advanced Video Codec
    Format profile : High@L3.1
    Format settings, CABAC : Yes
    Format settings, ReFrames : 1 frame
    Format settings, GOP : M=1, N=60
    Codec ID : avc1
    Codec ID/Info : Advanced Video Coding
    Duration : 24mn 42s
    Bit rate : 1 708 Kbps
    Maximum bit rate : 6 557 Kbps
    Width : 1 280 pixels
    Height : 720 pixels
    Display aspect ratio : 16: 9
    Frame rate mode : Constant
    Frame rate : 25.000 fps
    Color space : YUV
    Chroma subsampling : 4: 2: 0
    Bit depth : 8 bits
    Scan type : Progressive
    Bits/(Pixel*Frame) : 0.074
    Stream size : 302 MiB (90%)
    Encoded date : UTC 1904-01-01 00: 00: 00
    Tagged date : UTC 2015-11-25 22: 55: 40
    Audio
    ID : 2
    Format : AAC
    Format/Info : Advanced Audio Codec
    Format profile : LC
    Codec ID : 40
    Duration : 24mn 42s
    Bit rate mode : Variable
    Bit rate : 192 Kbps
    Maximum bit rate : 202 Kbps
    Channel(s) : 2 channels
    Channel positions : Front: L R
    Sampling rate : 44.1 KHz
    Compression mode : Lossy
    Stream size : 33.9 MiB (10%)
    Title : IsoMedia File Produced by Google, 5-11-2011
    Language : English
    Encoded date : UTC 2015-11-25 22: 55: 37
    Tagged date : UTC 2015-11-25 22: 55: 40
    General
    Complete name : /mnt/disk_d/Video/Слуга народа (сезон любимого сериала 1) (2015) WEB-DL 720p/Слуга народа - 15 серия.mp4
    Format : MPEG-4
    Format profile : Base Media/Version 2
    Codec ID : mp42
    File size : 315 MiB
    Duration : 24mn 16s
    Overall bit rate mode : Variable
    Overall bit rate : 1 816 Kbps
    Encoded date : UTC 2015-11-26 19: 43: 15
    Tagged date : UTC 2015-11-26 19: 43: 15
    gsst : 0
    gstd : 1456100
    gssd : BD47134A6
    gshh : r3---sn-03guxaxjvh-3c26.googlevideo.com
    Video
    ID : 1
    Format : AVC
    Format/Info : Advanced Video Codec
    Format profile : High@L3.1
    Format settings, CABAC : Yes
    Format settings, ReFrames : 1 frame
    Format settings, GOP : M=1, N=60
    Codec ID : avc1
    Codec ID/Info : Advanced Video Coding
    Duration : 24mn 16s
    Bit rate : 1 621 Kbps
    Maximum bit rate : 6 611 Kbps
    Width : 1 280 pixels
    Height : 720 pixels
    Display aspect ratio : 16: 9
    Frame rate mode : Constant
    Frame rate : 25.000 fps
    Color space : YUV
    Chroma subsampling : 4: 2: 0
    Bit depth : 8 bits
    Scan type : Progressive
    Bits/(Pixel*Frame) : 0.070
    Stream size : 281 MiB (89%)
    Encoded date : UTC 1904-01-01 00: 00: 00
    Tagged date : UTC 2015-11-26 19: 43: 57
    Audio
    ID : 2
    Format : AAC
    Format/Info : Advanced Audio Codec
    Format profile : LC
    Codec ID : 40
    Duration : 24mn 16s
    Bit rate mode : Variable
    Bit rate : 192 Kbps
    Maximum bit rate : 201 Kbps
    Channel(s) : 2 channels
    Channel positions : Front: L R
    Sampling rate : 44.1 KHz
    Compression mode : Lossy
    Stream size : 33.3 MiB (11%)
    Title : IsoMedia File Produced by Google, 5-11-2011
    Language : English
    Encoded date : UTC 2015-11-26 19: 43: 36
    Tagged date : UTC 2015-11-26 19: 43: 57
    General
    Complete name : /mnt/disk_d/Video/Слуга народа (сезон любимого сериала 1) (2015) WEB-DL 720p/Слуга народа - 16 серия.mp4
    Format : MPEG-4
    Format profile : Base Media/Version 2
    Codec ID : mp42
    File size : 315 MiB
    Duration : 24mn 6s
    Overall bit rate mode : Variable
    Overall bit rate : 1 828 Kbps
    Encoded date : UTC 2015-11-26 20: 11: 29
    Tagged date : UTC 2015-11-26 20: 11: 29
    gsst : 0
    gstd : 1446533
    gssd : BD47131C4
    gshh : r1---sn-03guxaxjvh-3c2z.googlevideo.com
    Video
    ID : 1
    Format : AVC
    Format/Info : Advanced Video Codec
    Format profile : High@L3.1
    Format settings, CABAC : Yes
    Format settings, ReFrames : 1 frame
    Format settings, GOP : M=1, N=60
    Codec ID : avc1
    Codec ID/Info : Advanced Video Coding
    Duration : 24mn 6s
    Bit rate : 1 633 Kbps
    Maximum bit rate : 6 525 Kbps
    Width : 1 280 pixels
    Height : 720 pixels
    Display aspect ratio : 16: 9
    Frame rate mode : Constant
    Frame rate : 25.000 fps
    Color space : YUV
    Chroma subsampling : 4: 2: 0
    Bit depth : 8 bits
    Scan type : Progressive
    Bits/(Pixel*Frame) : 0.071
    Stream size : 282 MiB (89%)
    Encoded date : UTC 1904-01-01 00: 00: 00
    Tagged date : UTC 2015-11-26 20: 11: 44
    Audio
    ID : 2
    Format : AAC
    Format/Info : Advanced Audio Codec
    Format profile : LC
    Codec ID : 40
    Duration : 24mn 6s
    Bit rate mode : Variable
    Bit rate : 192 Kbps
    Maximum bit rate : 201 Kbps
    Channel(s) : 2 channels
    Channel positions : Front: L R
    Sampling rate : 44.1 KHz
    Compression mode : Lossy
    Stream size : 33.1 MiB (11%)
    Title : IsoMedia File Produced by Google, 5-11-2011
    Language : English
    Encoded date : UTC 2015-11-26 20: 11: 35
    Tagged date : UTC 2015-11-26 20: 11: 44
    General
    Complete name : /mnt/disk_d/Video/Слуга народа (сезон любимого сериала 1) (2015) WEB-DL 720p/Слуга народа - 17 серия.mp4
    Format : MPEG-4
    Format profile : Base Media/Version 2
    Codec ID : mp42
    File size : 327 MiB
    Duration : 24mn 1s
    Overall bit rate mode : Variable
    Overall bit rate : 1 903 Kbps
    Encoded date : UTC 2015-11-30 19: 50: 09
    Tagged date : UTC 2015-11-30 19: 50: 09
    gsst : 0
    gstd : 1441540
    gssd : BD47131C6
    gshh : r3---sn-03guxaxjvh-3c2z.googlevideo.com
    Video
    ID : 1
    Format : AVC
    Format/Info : Advanced Video Codec
    Format profile : High@L3.1
    Format settings, CABAC : Yes
    Format settings, ReFrames : 1 frame
    Format settings, GOP : M=1, N=60
    Codec ID : avc1
    Codec ID/Info : Advanced Video Coding
    Duration : 24mn 1s
    Bit rate : 1 708 Kbps
    Maximum bit rate : 6 724 Kbps
    Width : 1 280 pixels
    Height : 720 pixels
    Display aspect ratio : 16: 9
    Frame rate mode : Constant
    Frame rate : 25.000 fps
    Color space : YUV
    Chroma subsampling : 4: 2: 0
    Bit depth : 8 bits
    Scan type : Progressive
    Bits/(Pixel*Frame) : 0.074
    Stream size : 294 MiB (90%)
    Encoded date : UTC 1904-01-01 00: 00: 00
    Tagged date : UTC 2015-11-30 19: 50: 24
    Color range : Limited
    Color primaries : BT.709
    Transfer characteristics : BT.709
    Matrix coefficients : BT.709
    Audio
    ID : 2
    Format : AAC
    Format/Info : Advanced Audio Codec
    Format profile : LC
    Codec ID : 40
    Duration : 24mn 1s
    Bit rate mode : Variable
    Bit rate : 192 Kbps
    Maximum bit rate : 201 Kbps
    Channel(s) : 2 channels
    Channel positions : Front: L R
    Sampling rate : 44.1 KHz
    Compression mode : Lossy
    Stream size : 33.0 MiB (10%)
    Title : IsoMedia File Produced by Google, 5-11-2011
    Language : English
    Encoded date : UTC 2015-11-30 19: 50: 17
    Tagged date : UTC 2015-11-30 19: 50: 24
    General
    Complete name : /mnt/disk_d/Video/Слуга народа (сезон любимого сериала 1) (2015) WEB-DL 720p/Слуга народа - 18 серия.mp4
    Format : MPEG-4
    Format profile : Base Media/Version 2
    Codec ID : mp42
    File size : 336 MiB
    Duration : 23mn 59s
    Overall bit rate mode : Variable
    Overall bit rate : 1 960 Kbps
    Encoded date : UTC 2015-12-01 20: 13: 32
    Tagged date : UTC 2015-12-01 20: 13: 32
    gsst : 0
    gstd : 1439426
    gssd : BD4713184
    gshh : r1---sn-03guxaxjvh-3c2s.googlevideo.com
    Video
    ID : 1
    Format : AVC
    Format/Info : Advanced Video Codec
    Format profile : High@L3.1
    Format settings, CABAC : Yes
    Format settings, ReFrames : 1 frame
    Format settings, GOP : M=1, N=60
    Codec ID : avc1
    Codec ID/Info : Advanced Video Coding
    Duration : 23mn 59s
    Bit rate : 1 766 Kbps
    Maximum bit rate : 7 195 Kbps
    Width : 1 280 pixels
    Height : 720 pixels
    Display aspect ratio : 16: 9
    Frame rate mode : Constant
    Frame rate : 25.000 fps
    Color space : YUV
    Chroma subsampling : 4: 2: 0
    Bit depth : 8 bits
    Scan type : Progressive
    Bits/(Pixel*Frame) : 0.077
    Stream size : 303 MiB (90%)
    Encoded date : UTC 1904-01-01 00: 00: 00
    Tagged date : UTC 2015-12-01 20: 14: 00
    Color range : Limited
    Color primaries : BT.709
    Transfer characteristics : BT.709
    Matrix coefficients : BT.709
    Audio
    ID : 2
    Format : AAC
    Format/Info : Advanced Audio Codec
    Format profile : LC
    Codec ID : 40
    Duration : 23mn 59s
    Bit rate mode : Variable
    Bit rate : 192 Kbps
    Maximum bit rate : 201 Kbps
    Channel(s) : 2 channels
    Channel positions : Front: L R
    Sampling rate : 44.1 KHz
    Compression mode : Lossy
    Stream size : 32.9 MiB (10%)
    Title : IsoMedia File Produced by Google, 5-11-2011
    Language : English
    Encoded date : UTC 2015-12-01 20: 13: 52
    Tagged date : UTC 2015-12-01 20: 14: 00
    General
    Complete name : /mnt/disk_d/Video/Слуга народа (сезон любимого сериала 1) (2015) WEB-DL 720p/Слуга народа - 19 серия.mp4
    Format : MPEG-4
    Format profile : Base Media/Version 2
    Codec ID : mp42
    File size : 343 MiB
    Duration : 24mn 53s
    Overall bit rate mode : Variable
    Overall bit rate : 1 926 Kbps
    Encoded date : UTC 2015-12-04 08: 21: 08
    Tagged date : UTC 2015-12-04 08: 21: 08
    gsst : 0
    gstd : 1493366
    gssd : BD4713185
    gshh : r2---sn-03guxaxjvh-3c2s.googlevideo.com
    Video
    ID : 1
    Format : AVC
    Format/Info : Advanced Video Codec
    Format profile : High@L3.1
    Format settings, CABAC : Yes
    Format settings, ReFrames : 1 frame
    Format settings, GOP : M=1, N=60
    Codec ID : avc1
    Codec ID/Info : Advanced Video Coding
    Duration : 24mn 53s
    Bit rate : 1 732 Kbps
    Maximum bit rate : 6 587 Kbps
    Width : 1 280 pixels
    Height : 720 pixels
    Display aspect ratio : 16: 9
    Frame rate mode : Constant
    Frame rate : 25.000 fps
    Color space : YUV
    Chroma subsampling : 4: 2: 0
    Bit depth : 8 bits
    Scan type : Progressive
    Bits/(Pixel*Frame) : 0.075
    Stream size : 308 MiB (90%)
    Encoded date : UTC 1904-01-01 00: 00: 00
    Tagged date : UTC 2015-12-04 08: 21: 30
    Color range : Limited
    Color primaries : BT.709
    Transfer characteristics : BT.709
    Matrix coefficients : BT.709
    Audio
    ID : 2
    Format : AAC
    Format/Info : Advanced Audio Codec
    Format profile : LC
    Codec ID : 40
    Duration : 24mn 53s
    Bit rate mode : Variable
    Bit rate : 192 Kbps
    Maximum bit rate : 201 Kbps
    Channel(s) : 2 channels
    Channel positions : Front: L R
    Sampling rate : 44.1 KHz
    Compression mode : Lossy
    Stream size : 34.2 MiB (10%)
    Title : IsoMedia File Produced by Google, 5-11-2011
    Language : English
    Encoded date : UTC 2015-12-04 08: 21: 20
    Tagged date : UTC 2015-12-04 08: 21: 30
    General
    Complete name : /mnt/disk_d/Video/Слуга народа (сезон любимого сериала 1) (2015) WEB-DL 720p/Слуга народа - 20 серия.mp4
    Format : MPEG-4
    Format profile : Base Media/Version 2
    Codec ID : mp42
    File size : 328 MiB
    Duration : 24mn 7s
    Overall bit rate mode : Variable
    Overall bit rate : 1 902 Kbps
    Encoded date : UTC 2015-12-03 20: 24: 46
    Tagged date : UTC 2015-12-03 20: 24: 46
    gsst : 0
    gstd : 1447670
    gssd : BD47134A6
    gshh : r3---sn-03guxaxjvh-3c26.googlevideo.com
    Video
    ID : 1
    Format : AVC
    Format/Info : Advanced Video Codec
    Format profile : High@L3.1
    Format settings, CABAC : Yes
    Format settings, ReFrames : 1 frame
    Format settings, GOP : M=1, N=60
    Codec ID : avc1
    Codec ID/Info : Advanced Video Coding
    Duration : 24mn 7s
    Bit rate : 1 707 Kbps
    Maximum bit rate : 6 305 Kbps
    Width : 1 280 pixels
    Height : 720 pixels
    Display aspect ratio : 16: 9
    Frame rate mode : Constant
    Frame rate : 25.000 fps
    Color space : YUV
    Chroma subsampling : 4: 2: 0
    Bit depth : 8 bits
    Scan type : Progressive
    Bits/(Pixel*Frame) : 0.074
    Stream size : 295 MiB (90%)
    Encoded date : UTC 1904-01-01 00: 00: 00
    Tagged date : UTC 2015-12-03 20: 25: 12
    Color range : Limited
    Color primaries : BT.709
    Transfer characteristics : BT.709
    Matrix coefficients : BT.709
    Audio
    ID : 2
    Format : AAC
    Format/Info : Advanced Audio Codec
    Format profile : LC
    Codec ID : 40
    Duration : 24mn 7s
    Bit rate mode : Variable
    Bit rate : 192 Kbps
    Maximum bit rate : 202 Kbps
    Channel(s) : 2 channels
    Channel positions : Front: L R
    Sampling rate : 44.1 KHz
    Compression mode : Lossy
    Stream size : 33.1 MiB (10%)
    Title : IsoMedia File Produced by Google, 5-11-2011
    Language : English
    Encoded date : UTC 2015-12-03 20: 24: 59
    Tagged date : UTC 2015-12-03 20: 25: 12
    General
    Complete name : /mnt/disk_d/Video/Слуга народа (сезон любимого сериала 1) (2015) WEB-DL 720p/Слуга народа - 21 серия.mp4
    Format : MPEG-4
    Format profile : Base Media/Version 2
    Codec ID : mp42
    File size : 349 MiB
    Duration : 26mn 2s
    Overall bit rate mode : Variable
    Overall bit rate : 1 872 Kbps
    Encoded date : UTC 2015-12-07 20: 31: 52
    Tagged date : UTC 2015-12-07 20: 31: 52
    gsst : 0
    gstd : 1562446
    gssd : BD47131C4
    gshh : r1---sn-03guxaxjvh-3c2z.googlevideo.com
    Video
    ID : 1
    Format : AVC
    Format/Info : Advanced Video Codec
    Format profile : High@L3.1
    Format settings, CABAC : Yes
    Format settings, ReFrames : 1 frame
    Format settings, GOP : M=1, N=60
    Codec ID : avc1
    Codec ID/Info : Advanced Video Coding
    Duration : 26mn 2s
    Bit rate : 1 677 Kbps
    Maximum bit rate : 6 423 Kbps
    Width : 1 280 pixels
    Height : 720 pixels
    Display aspect ratio : 16: 9
    Frame rate mode : Constant
    Frame rate : 25.000 fps
    Color space : YUV
    Chroma subsampling : 4: 2: 0
    Bit depth : 8 bits
    Scan type : Progressive
    Bits/(Pixel*Frame) : 0.073
    Stream size : 312 MiB (90%)
    Encoded date : UTC 1904-01-01 00: 00: 00
    Tagged date : UTC 2015-12-07 20: 32: 19
    Audio
    ID : 2
    Format : AAC
    Format/Info : Advanced Audio Codec
    Format profile : LC
    Codec ID : 40
    Duration : 26mn 2s
    Bit rate mode : Variable
    Bit rate : 192 Kbps
    Maximum bit rate : 202 Kbps
    Channel(s) : 2 channels
    Channel positions : Front: L R
    Sampling rate : 44.1 KHz
    Compression mode : Lossy
    Stream size : 35.8 MiB (10%)
    Title : IsoMedia File Produced by Google, 5-11-2011
    Language : English
    Encoded date : UTC 2015-12-07 20: 32: 08
    Tagged date : UTC 2015-12-07 20: 32: 19
    General
    Complete name : /mnt/disk_d/Video/Слуга народа (сезон любимого сериала 1) (2015) WEB-DL 720p/Слуга народа - 22 серия.mp4
    Format : MPEG-4
    Format profile : Base Media/Version 2
    Codec ID : mp42
    File size : 334 MiB
    Duration : 24mn 12s
    Overall bit rate mode : Variable
    Overall bit rate : 1 929 Kbps
    Encoded date : UTC 2015-12-08 19: 37: 35
    Tagged date : UTC 2015-12-08 19: 37: 35
    gsst : 0
    gstd : 1452895
    gssd : BD4713187
    gshh : r3---sn-03guxaxjvh-3c2s.googlevideo.com
    Video
    ID : 1
    Format : AVC
    Format/Info : Advanced Video Codec
    Format profile : High@L3.1
    Format settings, CABAC : Yes
    Format settings, ReFrames : 1 frame
    Format settings, GOP : M=1, N=60
    Codec ID : avc1
    Codec ID/Info : Advanced Video Coding
    Duration : 24mn 12s
    Bit rate : 1 734 Kbps
    Maximum bit rate : 6 718 Kbps
    Width : 1 280 pixels
    Height : 720 pixels
    Display aspect ratio : 16: 9
    Frame rate mode : Constant
    Frame rate : 25.000 fps
    Color space : YUV
    Chroma subsampling : 4: 2: 0
    Bit depth : 8 bits
    Scan type : Progressive
    Bits/(Pixel*Frame) : 0.075
    Stream size : 300 MiB (90%)
    Encoded date : UTC 1904-01-01 00: 00: 00
    Tagged date : UTC 2015-12-08 19: 37: 45
    Audio
    ID : 2
    Format : AAC
    Format/Info : Advanced Audio Codec
    Format profile : LC
    Codec ID : 40
    Duration : 24mn 12s
    Bit rate mode : Variable
    Bit rate : 192 Kbps
    Maximum bit rate : 201 Kbps
    Channel(s) : 2 channels
    Channel positions : Front: L R
    Sampling rate : 44.1 KHz
    Compression mode : Lossy
    Stream size : 33.3 MiB (10%)
    Title : IsoMedia File Produced by Google, 5-11-2011
    Language : English
    Encoded date : UTC 2015-12-08 19: 37: 41
    Tagged date : UTC 2015-12-08 19: 37: 45
    General
    Complete name : /mnt/disk_d/Video/Слуга народа (сезон любимого сериала 1) (2015) WEB-DL 720p/Слуга народа - 23 серия.mp4
    Format : MPEG-4
    Format profile : Base Media/Version 2
    Codec ID : mp42
    File size : 332 MiB
    Duration : 24mn 13s
    Overall bit rate mode : Variable
    Overall bit rate : 1 916 Kbps
    Encoded date : UTC 2015-12-09 20: 16: 19
    Tagged date : UTC 2015-12-09 20: 16: 19
    gsst : 0
    gstd : 1453986
    gssd : BD5BA7AC9
    gshh : r6---sn-03guxaxjvh-3c2e.googlevideo.com
    Video
    ID : 1
    Format : AVC
    Format/Info : Advanced Video Codec
    Format profile : High@L3.1
    Format settings, CABAC : Yes
    Format settings, ReFrames : 1 frame
    Format settings, GOP : M=1, N=60
    Codec ID : avc1
    Codec ID/Info : Advanced Video Coding
    Duration : 24mn 13s
    Bit rate : 1 721 Kbps
    Maximum bit rate : 6 286 Kbps
    Width : 1 280 pixels
    Height : 720 pixels
    Display aspect ratio : 16: 9
    Frame rate mode : Constant
    Frame rate : 25.000 fps
    Color space : YUV
    Chroma subsampling : 4: 2: 0
    Bit depth : 8 bits
    Scan type : Progressive
    Bits/(Pixel*Frame) : 0.075
    Stream size : 298 MiB (90%)
    Encoded date : UTC 1904-01-01 00: 00: 00
    Tagged date : UTC 2015-12-09 20: 16: 43
    Audio
    ID : 2
    Format : AAC
    Format/Info : Advanced Audio Codec
    Format profile : LC
    Codec ID : 40
    Duration : 24mn 13s
    Bit rate mode : Variable
    Bit rate : 192 Kbps
    Maximum bit rate : 201 Kbps
    Channel(s) : 2 channels
    Channel positions : Front: L R
    Sampling rate : 44.1 KHz
    Compression mode : Lossy
    Stream size : 33.3 MiB (10%)
    Title : IsoMedia File Produced by Google, 5-11-2011
    Language : English
    Encoded date : UTC 2015-12-09 20: 16: 35
    Tagged date : UTC 2015-12-09 20: 16: 43
    General
    Complete name : /mnt/disk_d/Video/Слуга народа (сезон любимого сериала 1) (2015) WEB-DL 720p/Слуга народа - 24 серия.mp4
    Format : MPEG-4
    Format profile : Base Media/Version 2
    Codec ID : mp42
    File size : 332 MiB
    Duration : 24mn 44s
    Overall bit rate mode : Variable
    Overall bit rate : 1 878 Kbps
    Encoded date : UTC 2015-12-09 21: 05: 01
    Tagged date : UTC 2015-12-09 21: 05: 01
    gsst : 0
    gstd : 1484288
    gssd : BD4713184
    gshh : r1---sn-03guxaxjvh-3c2s.googlevideo.com
    Video
    ID : 1
    Format : AVC
    Format/Info : Advanced Video Codec
    Format profile : High@L3.1
    Format settings, CABAC : Yes
    Format settings, ReFrames : 1 frame
    Format settings, GOP : M=1, N=60
    Codec ID : avc1
    Codec ID/Info : Advanced Video Coding
    Duration : 24mn 44s
    Bit rate : 1 684 Kbps
    Maximum bit rate : 6 605 Kbps
    Width : 1 280 pixels
    Height : 720 pixels
    Display aspect ratio : 16: 9
    Frame rate mode : Constant
    Frame rate : 25.000 fps
    Color space : YUV
    Chroma subsampling : 4: 2: 0
    Bit depth : 8 bits
    Scan type : Progressive
    Bits/(Pixel*Frame) : 0.073
    Stream size : 298 MiB (90%)
    Encoded date : UTC 1904-01-01 00: 00: 00
    Tagged date : UTC 2015-12-09 21: 05: 26
    Audio
    ID : 2
    Format : AAC
    Format/Info : Advanced Audio Codec
    Format profile : LC
    Codec ID : 40
    Duration : 24mn 44s
    Bit rate mode : Variable
    Bit rate : 192 Kbps
    Maximum bit rate : 201 Kbps
    Channel(s) : 2 channels
    Channel positions : Front: L R
    Sampling rate : 44.1 KHz
    Compression mode : Lossy
    Stream size : 34.0 MiB (10%)
    Title : IsoMedia File Produced by Google, 5-11-2011
    Language : English
    Encoded date : UTC 2015-12-09 21: 05: 16
    Tagged date : UTC 2015-12-09 21: 05: 26
    General
    Complete name : /mnt/disk_d/Video/Слуга народа (сезон любимого сериала 1) (2015) WEB-DL 720p/Слуга народа - 3 серия.mp4
    Format : MPEG-4
    Format profile : Base Media/Version 2
    Codec ID : mp42
    File size : 376 MiB
    Duration : 24mn 23s
    Overall bit rate mode : Variable
    Overall bit rate : 2 156 Kbps
    Encoded date : UTC 2015-11-17 17: 51: 18
    Tagged date : UTC 2015-11-17 17: 51: 18
    gsst : 0
    gstd : 1463901
    gssd : BD4713487
    gshh : r4---sn-03guxaxjvh-3c2d.googlevideo.com
    Video
    ID : 1
    Format : AVC
    Format/Info : Advanced Video Codec
    Format profile : High@L3.1
    Format settings, CABAC : Yes
    Format settings, ReFrames : 1 frame
    Format settings, GOP : M=1, N=60
    Codec ID : avc1
    Codec ID/Info : Advanced Video Coding
    Duration : 24mn 23s
    Bit rate : 1 961 Kbps
    Maximum bit rate : 5 989 Kbps
    Width : 1 280 pixels
    Height : 720 pixels
    Display aspect ratio : 16: 9
    Frame rate mode : Constant
    Frame rate : 25.000 fps
    Color space : YUV
    Chroma subsampling : 4: 2: 0
    Bit depth : 8 bits
    Scan type : Progressive
    Bits/(Pixel*Frame) : 0.085
    Stream size : 342 MiB (91%)
    Encoded date : UTC 1904-01-01 00: 00: 00
    Tagged date : UTC 2015-11-17 17: 51: 59
    Audio
    ID : 2
    Format : AAC
    Format/Info : Advanced Audio Codec
    Format profile : LC
    Codec ID : 40
    Duration : 24mn 23s
    Bit rate mode : Variable
    Bit rate : 192 Kbps
    Maximum bit rate : 202 Kbps
    Channel(s) : 2 channels
    Channel positions : Front: L R
    Sampling rate : 44.1 KHz
    Compression mode : Lossy
    Stream size : 33.5 MiB (9%)
    Title : IsoMedia File Produced by Google, 5-11-2011
    Language : English
    Encoded date : UTC 2015-11-17 17: 51: 32
    Tagged date : UTC 2015-11-17 17: 51: 59
    General
    Complete name : /mnt/disk_d/Video/Слуга народа (сезон любимого сериала 1) (2015) WEB-DL 720p/Слуга народа - 4 серия.mp4
    Format : MPEG-4
    Format profile : Base Media/Version 2
    Codec ID : mp42
    File size : 387 MiB
    Duration : 27mn 9s
    Overall bit rate mode : Variable
    Overall bit rate : 1 993 Kbps
    Encoded date : UTC 2015-11-19 12: 35: 04
    Tagged date : UTC 2015-11-19 12: 35: 04
    gsst : 0
    gstd : 1629343
    gssd : BD47134A4
    gshh : r1---sn-03guxaxjvh-3c26.googlevideo.com
    Video
    ID : 1
    Format : AVC
    Format/Info : Advanced Video Codec
    Format profile : High@L3.1
    Format settings, CABAC : Yes
    Format settings, ReFrames : 1 frame
    Format settings, GOP : M=1, N=60
    Codec ID : avc1
    Codec ID/Info : Advanced Video Coding
    Duration : 27mn 9s
    Bit rate : 1 799 Kbps
    Maximum bit rate : 6 193 Kbps
    Width : 1 280 pixels
    Height : 720 pixels
    Display aspect ratio : 16: 9
    Frame rate mode : Constant
    Frame rate : 25.000 fps
    Color space : YUV
    Chroma subsampling : 4: 2: 0
    Bit depth : 8 bits
    Scan type : Progressive
    Bits/(Pixel*Frame) : 0.078
    Stream size : 349 MiB (90%)
    Encoded date : UTC 1904-01-01 00: 00: 00
    Tagged date : UTC 2015-11-19 12: 35: 26
    Color range : Limited
    Color primaries : BT.709
    Transfer characteristics : BT.709
    Matrix coefficients : BT.709
    Audio
    ID : 2
    Format : AAC
    Format/Info : Advanced Audio Codec
    Format profile : LC
    Codec ID : 40
    Duration : 27mn 9s
    Bit rate mode : Variable
    Bit rate : 192 Kbps
    Maximum bit rate : 201 Kbps
    Channel(s) : 2 channels
    Channel positions : Front: L R
    Sampling rate : 44.1 KHz
    Compression mode : Lossy
    Stream size : 37.3 MiB (10%)
    Title : IsoMedia File Produced by Google, 5-11-2011
    Language : English
    Encoded date : UTC 2015-11-19 12: 35: 20
    Tagged date : UTC 2015-11-19 12: 35: 26
    General
    Complete name : /mnt/disk_d/Video/Слуга народа (сезон любимого сериала 1) (2015) WEB-DL 720p/Слуга народа - 5 серия.mp4
    Format : MPEG-4
    Format profile : Base Media/Version 2
    Codec ID : mp42
    File size : 371 MiB
    Duration : 24mn 36s
    Overall bit rate mode : Variable
    Overall bit rate : 2 107 Kbps
    Encoded date : UTC 2015-11-20 06: 28: 55
    Tagged date : UTC 2015-11-20 06: 28: 55
    gsst : 0
    gstd : 1476463
    gssd : BD47134A7
    gshh : r4---sn-03guxaxjvh-3c26.googlevideo.com
    Video
    ID : 1
    Format : AVC
    Format/Info : Advanced Video Codec
    Format profile : High@L3.1
    Format settings, CABAC : Yes
    Format settings, ReFrames : 1 frame
    Format settings, GOP : M=1, N=60
    Codec ID : avc1
    Codec ID/Info : Advanced Video Coding
    Duration : 24mn 36s
    Bit rate : 1 912 Kbps
    Maximum bit rate : 5 865 Kbps
    Width : 1 280 pixels
    Height : 720 pixels
    Display aspect ratio : 16: 9
    Frame rate mode : Constant
    Frame rate : 25.000 fps
    Color space : YUV
    Chroma subsampling : 4: 2: 0
    Bit depth : 8 bits
    Scan type : Progressive
    Bits/(Pixel*Frame) : 0.083
    Stream size : 337 MiB (91%)
    Encoded date : UTC 1904-01-01 00: 00: 00
    Tagged date : UTC 2015-11-20 06: 29: 04
    Color range : Limited
    Color primaries : BT.709
    Transfer characteristics : BT.709
    Matrix coefficients : BT.709
    Audio
    ID : 2
    Format : AAC
    Format/Info : Advanced Audio Codec
    Format profile : LC
    Codec ID : 40
    Duration : 24mn 36s
    Bit rate mode : Variable
    Bit rate : 192 Kbps
    Maximum bit rate : 201 Kbps
    Channel(s) : 2 channels
    Channel positions : Front: L R
    Sampling rate : 44.1 KHz
    Compression mode : Lossy
    Stream size : 33.8 MiB (9%)
    Title : IsoMedia File Produced by Google, 5-11-2011
    Language : English
    Encoded date : UTC 2015-11-20 06: 29: 01
    Tagged date : UTC 2015-11-20 06: 29: 04
    General
    Complete name : /mnt/disk_d/Video/Слуга народа (сезон любимого сериала 1) (2015) WEB-DL 720p/Слуга народа - 6 серия.mp4
    Format : MPEG-4
    Format profile : Base Media/Version 2
    Codec ID : mp42
    File size : 374 MiB
    Duration : 26mn 16s
    Overall bit rate mode : Variable
    Overall bit rate : 1 993 Kbps
    Encoded date : UTC 2015-11-18 18: 13: 24
    Tagged date : UTC 2015-11-18 18: 13: 24
    gsst : 0
    gstd : 1576216
    gssd : BD4713186
    gshh : r3---sn-03guxaxjvh-3c2s.googlevideo.com
    Video
    ID : 1
    Format : AVC
    Format/Info : Advanced Video Codec
    Format profile : High@L3.1
    Format settings, CABAC : Yes
    Format settings, ReFrames : 1 frame
    Format settings, GOP : M=1, N=60
    Codec ID : avc1
    Codec ID/Info : Advanced Video Coding
    Duration : 26mn 16s
    Bit rate : 1 798 Kbps
    Maximum bit rate : 6 381 Kbps
    Width : 1 280 pixels
    Height : 720 pixels
    Display aspect ratio : 16: 9
    Frame rate mode : Constant
    Frame rate : 25.000 fps
    Color space : YUV
    Chroma subsampling : 4: 2: 0
    Bit depth : 8 bits
    Scan type : Progressive
    Bits/(Pixel*Frame) : 0.078
    Stream size : 338 MiB (90%)
    Encoded date : UTC 1904-01-01 00: 00: 00
    Tagged date : UTC 2015-11-18 18: 13: 45
    Audio
    ID : 2
    Format : AAC
    Format/Info : Advanced Audio Codec
    Format profile : LC
    Codec ID : 40
    Duration : 26mn 16s
    Bit rate mode : Variable
    Bit rate : 192 Kbps
    Maximum bit rate : 202 Kbps
    Channel(s) : 2 channels
    Channel positions : Front: L R
    Sampling rate : 44.1 KHz
    Compression mode : Lossy
    Stream size : 36.1 MiB (10%)
    Title : IsoMedia File Produced by Google, 5-11-2011
    Language : English
    Encoded date : UTC 2015-11-18 18: 13: 34
    Tagged date : UTC 2015-11-18 18: 13: 45
    General
    Complete name : /mnt/disk_d/Video/Слуга народа (сезон любимого сериала 1) (2015) WEB-DL 720p/Слуга народа - 7 серия.mp4
    Format : MPEG-4
    Format profile : Base Media/Version 2
    Codec ID : mp42
    File size : 353 MiB
    Duration : 24mn 40s
    Overall bit rate mode : Variable
    Overall bit rate : 2 003 Kbps
    Encoded date : UTC 2015-11-19 19: 23: 46
    Tagged date : UTC 2015-11-19 19: 23: 46
    gsst : 0
    gstd : 1480386
    gssd : BD4713187
    gshh : r4---sn-03guxaxjvh-3c2s.googlevideo.com
    Video
    ID : 1
    Format : AVC
    Format/Info : Advanced Video Codec
    Format profile : High@L3.1
    Format settings, CABAC : Yes
    Format settings, ReFrames : 1 frame
    Format settings, GOP : M=1, N=60
    Codec ID : avc1
    Codec ID/Info : Advanced Video Coding
    Duration : 24mn 40s
    Bit rate : 1 809 Kbps
    Maximum bit rate : 6 294 Kbps
    Width : 1 280 pixels
    Height : 720 pixels
    Display aspect ratio : 16: 9
    Frame rate mode : Constant
    Frame rate : 25.000 fps
    Color space : YUV
    Chroma subsampling : 4: 2: 0
    Bit depth : 8 bits
    Scan type : Progressive
    Bits/(Pixel*Frame) : 0.079
    Stream size : 319 MiB (90%)
    Encoded date : UTC 1904-01-01 00: 00: 00
    Tagged date : UTC 2015-11-19 19: 24: 11
    Audio
    ID : 2
    Format : AAC
    Format/Info : Advanced Audio Codec
    Format profile : LC
    Codec ID : 40
    Duration : 24mn 40s
    Bit rate mode : Variable
    Bit rate : 192 Kbps
    Maximum bit rate : 201 Kbps
    Channel(s) : 2 channels
    Channel positions : Front: L R
    Sampling rate : 44.1 KHz
    Compression mode : Lossy
    Stream size : 33.9 MiB (10%)
    Title : IsoMedia File Produced by Google, 5-11-2011
    Language : English
    Encoded date : UTC 2015-11-19 19: 24: 01
    Tagged date : UTC 2015-11-19 19: 24: 11
    General
    Complete name : /mnt/disk_d/Video/Слуга народа (сезон любимого сериала 1) (2015) WEB-DL 720p/Слуга народа - 8 серия.mp4
    Format : MPEG-4
    Format profile : Base Media/Version 2
    Codec ID : mp42
    File size : 338 MiB
    Duration : 24mn 50s
    Overall bit rate mode : Variable
    Overall bit rate : 1 900 Kbps
    Encoded date : UTC 2015-11-19 19: 47: 47
    Tagged date : UTC 2015-11-19 19: 47: 47
    gsst : 0
    gstd : 1490418
    gssd : BD4713485
    gshh : r2---sn-03guxaxjvh-3c2d.googlevideo.com
    Video
    ID : 1
    Format : AVC
    Format/Info : Advanced Video Codec
    Format profile : High@L3.1
    Format settings, CABAC : Yes
    Format settings, ReFrames : 1 frame
    Format settings, GOP : M=1, N=60
    Codec ID : avc1
    Codec ID/Info : Advanced Video Coding
    Duration : 24mn 50s
    Bit rate : 1 706 Kbps
    Maximum bit rate : 5 817 Kbps
    Width : 1 280 pixels
    Height : 720 pixels
    Display aspect ratio : 16: 9
    Frame rate mode : Constant
    Frame rate : 25.000 fps
    Color space : YUV
    Chroma subsampling : 4: 2: 0
    Bit depth : 8 bits
    Scan type : Progressive
    Bits/(Pixel*Frame) : 0.074
    Stream size : 303 MiB (90%)
    Encoded date : UTC 1904-01-01 00: 00: 00
    Tagged date : UTC 2015-11-19 19: 48: 11
    Audio
    ID : 2
    Format : AAC
    Format/Info : Advanced Audio Codec
    Format profile : LC
    Codec ID : 40
    Duration : 24mn 50s
    Bit rate mode : Variable
    Bit rate : 192 Kbps
    Maximum bit rate : 202 Kbps
    Channel(s) : 2 channels
    Channel positions : Front: L R
    Sampling rate : 44.1 KHz
    Compression mode : Lossy
    Stream size : 34.1 MiB (10%)
    Title : IsoMedia File Produced by Google, 5-11-2011
    Language : English
    Encoded date : UTC 2015-11-19 19: 47: 58
    Tagged date : UTC 2015-11-19 19: 48: 11
    General
    Complete name : /mnt/disk_d/Video/Слуга народа (сезон любимого сериала 1) (2015) WEB-DL 720p/Слуга народа - 9 серия.mp4
    Format : MPEG-4
    Format profile : Base Media/Version 2
    Codec ID : mp42
    File size : 350 MiB
    Duration : 24mn 19s
    Overall bit rate mode : Variable
    Overall bit rate : 2 013 Kbps
    Encoded date : UTC 2015-11-23 18: 33: 16
    Tagged date : UTC 2015-11-23 18: 33: 16
    gsst : 0
    gstd : 1459976
    gssd : BADC230EA
    gshh : r10---sn-3c27ln7y.googlevideo.com
    Video
    ID : 1
    Format : AVC
    Format/Info : Advanced Video Codec
    Format profile : High@L3.1
    Format settings, CABAC : Yes
    Format settings, ReFrames : 1 frame
    Format settings, GOP : M=1, N=60
    Codec ID : avc1
    Codec ID/Info : Advanced Video Coding
    Duration : 24mn 19s
    Bit rate : 1 819 Kbps
    Maximum bit rate : 6 060 Kbps
    Width : 1 280 pixels
    Height : 720 pixels
    Display aspect ratio : 16: 9
    Frame rate mode : Constant
    Frame rate : 25.000 fps
    Color space : YUV
    Chroma subsampling : 4: 2: 0
    Bit depth : 8 bits
    Scan type : Progressive
    Bits/(Pixel*Frame) : 0.079
    Stream size : 317 MiB (90%)
    Encoded date : UTC 1904-01-01 00: 00: 00
    Tagged date : UTC 2015-11-23 18: 33: 46
    Audio
    ID : 2
    Format : AAC
    Format/Info : Advanced Audio Codec
    Format profile : LC
    Codec ID : 40
    Duration : 24mn 19s
    Bit rate mode : Variable
    Bit rate : 192 Kbps
    Maximum bit rate : 201 Kbps
    Channel(s) : 2 channels
    Channel positions : Front: L R
    Sampling rate : 44.1 KHz
    Compression mode : Lossy
    Stream size : 33.4 MiB (10%)
    Title : IsoMedia File Produced by Google, 5-11-2011
    Language : English
    Encoded date : UTC 2015-11-23 18: 33: 31
    Tagged date : UTC 2015-11-23 18: 33: 46
    Релиз подготовил:
    Залил: Drool

    Онлайн видео Слуга народа


    Размер скачиваемого торрента: 7.92 GB (8501668707 Bytes)

    Слуга народа/Слуга народу (2015) WEB-DL 720p от UAGet
    загрузка...
    Рейтинг →
     (голосов: 1, оценка 4/5, голосовать можно 1 раз )

    Другие торренты по теме:

  • Слуга народа (1 сезон: 1 серия из 24) / 2015 / РУ / WEB-DLRip (AVC)
  • Слуга народа (2015) DVB от Files-x
  • Слуга народа (1 сезон: 1-4 серии из 24) / 2015 / РУ / SATRip
  • Слуга народа (2015) WEB-DLRip-AVC от Files-x
  • Слуга народа (1 сезон: 1-8 серия из 24) / 2015 / РУ / WEB-DLRip
  • Слуга народа (2015) SATRip-AVC от Files-x
  • Слуга народа (1 сезон: 1-10 серии из 24) / 2015 / РУ / WEB-DL (1080p)
  • Слуга народа (2015) WEB-DL 720p


    • Комментарии (0):

      Информация

      Информация

        Посетители, находящиеся в группе Гости, не могут оставлять комментарии в данной новости.

        ↓ Меню



        ↓ Опрос

        А Вы добавили сайт в закладки?
        Да
        Не


        Top 10 за месяц (Фильмы)