.
Авторизация | Регистрация
Хочешь лучшие торренты? Добавь свой email!
Добавить
» » Родина / Homeland (2015) WEB-DLRip | КПК | LostFilm скачать торрент бесплатно




    Родина / Homeland (2015) WEB-DLRip | КПК | LostFilm скачать торрент бесплатно

    Опубликовал: Админ | Дата: 11-12-2015, 05:00 | Просмотров: 155


    • Родина/Homeland •
    ? Снималось в: США
    ? Создали в: Cherry Pie Productions, Fox 21, Keshet Broadcasting, Showtime Networks Inc., Teakwood Lane Productions
    ? Создали в: 2015
    ? Категория жанра: триллер, драма, детектив
    ? Главный режиссёр: Лесли Линка Глаттер, Майкл Куэста, Дэниэл Эттиэс
    ?
    Актеры
    Клэр Дэйнс, Дэмиэн Льюис, Мэнди Пэтинкин, Морена Баккарин, Дэвид Хэрвуд, Руперт Френд, Джексон Пэйс, Морган Сэйлор, Ф. Мюррэй Абрахам, Диего Клаттенхофф.

    ? Перевод текста: Профессиональный (многоголосый, закадровый от Lostfilm)


    Описание фильма
    В центре сюжета находятся сержант морской пехоты ВМФ США Николас Броуди, вернувшийся домой после восьми лет отсутствия без вести в Ираке, и Кэрри Мэтисон, офицер ЦРУ, которая подозревает его в причастности к подготовке террористической атаки на Америку.



    ? Качество фильма: WEB-DLRip
    ? Время просмотра: по ~ 00: 55: 00

    ? Тип видео: MP4
    ? Информация о видео кодек: H.264
    ? Информация о звуке кодек: AAC-LC
    ? Свойства видео: 640x360 (16: 9), 23.976 fps, 600 kbps (0.109 bit/pixel)
    ? Свойства аудио: 48.0 KHz, 2 ch, 128 kbps
    MediaInfo
    General
    Complete name : Homeland.S05E01.WEB-DLRip.rus.LostFilm.TV.mp4
    Format : MPEG-4
    Format profile : Base Media
    Codec ID : isom
    File size : 263 MiB
    Duration : 50mn 17s
    Overall bit rate mode : Variable
    Overall bit rate : 732 Kbps
    Encoded date : UTC 2015-12-09 20: 11: 19
    Tagged date : UTC 2015-12-09 20: 11: 19

    Video
    ID : 1
    Format : AVC
    Format/Info : Advanced Video Codec
    Format profile : High@L4.1
    Format settings, CABAC : Yes
    Format settings, ReFrames : 9 frames
    Codec ID : avc1
    Codec ID/Info : Advanced Video Coding
    Duration : 50mn 17s
    Bit rate : 600 Kbps
    Maximum bit rate : 1 532 Kbps
    Width : 640 pixels
    Height : 360 pixels
    Display aspect ratio : 16: 9
    Frame rate mode : Constant
    Frame rate : 23.976 fps
    Color space : YUV
    Chroma subsampling : 4: 2: 0
    Bit depth : 8 bits
    Scan type : Progressive
    Bits/(Pixel*Frame) : 0.109
    Stream size : 216 MiB (82%)
    Title : 264@GPAC0.5.2-DEV-rev248-g39d5978-master
    Writing library : x264 core 146 r2538 121396c
    Encoding settings : cabac=1/ref=9/deblock=1: -3: -3/analyse=0x3: 0x113/me=umh/subme=11/psy=1/psy_rd=1.00: 0.00/mixed_ref=1/me_range=32/chroma_me=1/trellis=2/8x8dct=1/cqm=0/deadzone=21, 11/fast_pskip=0/chroma_qp_offset=-2/threads=6/lookahead_threads=1/sliced_threads=0/nr=0/decimate=0/interlaced=0/bluray_compat=0/constrained_intra=0/bframes=9/b_pyramid=2/b_adapt=2/b_bias=0/direct=3/weightb=1/open_gop=0/weightp=2/keyint=240/keyint_min=23/scenecut=40/intra_refresh=0/rc=2pass/mbtree=0/bitrate=600/ratetol=1.0/qcomp=0.60/qpmin=0/qpmax=69/qpstep=4/cplxblur=20.0/qblur=0.5/ip_ratio=1.40/pb_ratio=1.30/aq=1: 1.00
    Encoded date : UTC 2015-12-09 20: 11: 19
    Tagged date : UTC 2015-12-09 20: 11: 32

    Audio
    ID : 2
    Format : AAC
    Format/Info : Advanced Audio Codec
    Format profile : LC
    Codec ID : 40
    Duration : 50mn 17s
    Bit rate mode : Variable
    Bit rate : 128 Kbps
    Maximum bit rate : 151 Kbps
    Channel(s) : 2 channels
    Channel positions : Front: L R
    Sampling rate : 48.0 KHz
    Compression mode : Lossy
    Stream size : 46.0 MiB (17%)
    Encoded date : UTC 2015-12-09 18: 40: 11
    Tagged date : UTC 2015-12-09 20: 11: 32
    Скриншоты

    Залил: ProT1gR

    Онлайн видео Родина


    Размер скачиваемого торрента: 2.63 GB (2821337216 Bytes)

    Родина/Homeland (2015) WEB-DLRip | КПК | LostFilm
    загрузка...
    Рейтинг →
     (голосов: 1, оценка 4/5, голосовать можно 1 раз )

    Другие торренты по теме:

  • Чужой среди своих / Родина / Homeland (2013) HDTVRip | Sub скачать через торрент бесплатно
  • Чужой среди своих / Родина / Homeland (2013) WEB-DLRip от Scarabey | LostFilm
  • Чужой среди своих / Родина / Homeland (2013) WEB-DLRip | Amedia
  • Чужой среди своих / Родина / Homeland (2011-2013) WEB-DL | LostFilm | iPhone скачать через торрент бесплатно
  • Чужой среди своих / Родина / Homeland (2013) WEB-DLRip | LostFilm скачать через торрент бесплатно
  • Чужой среди своих / Родина / Homeland (2013) WEB-DLRip | Пифагор
  • Чужой среди своих / Родина / Homeland (2013) WEB-DLRip | P скачать через торрент бесплатно
  • Чужой среди своих / Родина / Homeland (2011-2013) WEB-DLRip | LostFilm скачать через торрент бесплатно


    • Комментарии (0):

      Информация

      Информация

        Посетители, находящиеся в группе Гости, не могут оставлять комментарии в данной новости.

        ↓ Меню



        ↓ Опрос

        А Вы добавили сайт в закладки?
        Да
        Не


        Top 10 за месяц (Фильмы)