.
Авторизация | Регистрация
Хочешь лучшие торренты? Добавь свой email!
Добавить
» » Любовь без обязательств / Sleeping with Other People (2015) WEBRip 720p | L2 скачать торрент бесплатно




    Любовь без обязательств / Sleeping with Other People (2015) WEBRip 720p | L2 скачать торрент бесплатно

    Опубликовал: Админ | Дата: 9-12-2015, 05:01 | Просмотров: 117



    Детально о кино
    Русское название: Любовь без обязательств
    Русское название в мировом прокате: Sleeping with Other People
    Создали в: 2015
    Категория жанра: комедия
    Главный режиссер: Лесли Хэдланд

    Актеры
    Джейсон Судейкис, Элисон Бри, Джордан Карлос, Маргарита Левиева, Чарльз Кэйн, Адам Броди, Майкл Сирил Крейтон, Билли Айкнер, Джейсон Манцукас

    Сюжет фильма
    Джейк — дамский угодник, каких свет не видывал. Он с легкостью завоевывает женские сердца, а потом разбивает их. Лэйни — его полная противоположность, она еще со студенческих лет влюблена в одного и того же мужчину, но чем больше проходит времени, тем очевиднее становится, что с ним у нее нет будущего. У этих двоих есть одна романтическая история из прошлого. История, которая может помочь им изменить себя. Но для этого им придется придерживаться между собой исключительно дружеских отношений, ведь секс в их жизни все лишь усложнял. Смогут эти двое удержаться от соблазна и помочь друг другу?


    Снималось в: США/Gloria Sanchez Productions, IM Global, Sidney Kimmel Entertainment
    Время просмотра: 01: 36: 58
    Тип перевода: Любительское (двухголосое) Parovoz Production
    Файл
    Тип видео: MKV
    Качество фильма: WEBRip 720p
    Информация о видео: MPEG-4 AVC, 4019 kb/s, 1280x532
    Информация о звуке: Russian/English: AC3, 192 kb/s (2 ch)

    MI

    Format : Matroska
    Format version : Version 2
    File size : 2.96 GiB
    Duration : 1h 36mn
    Overall bit rate : 4 371 Kbps
    Encoded date : UTC 2015-12-08 23: 08: 04
    Writing application : mkvmerge v7.8.0 (;River Man;) 32bit built on Apr 3 2015 12: 11: 22
    Writing library : libebml v1.3.1 + libmatroska v1.4.2
    Video
    ID : 1
    Format : AVC
    Format/Info : Advanced Video Codec
    Format profile : High@L4.1
    Format settings, CABAC : Yes
    Format settings, ReFrames : 4 frames
    Codec ID : V_MPEG4/ISO/AVC
    Duration : 1h 36mn
    Bit rate : 4 019 Kbps
    Width : 1 280 pixels
    Height : 532 pixels
    Display aspect ratio : 2.40: 1
    Frame rate mode : Constant
    Frame rate : 25.000 fps
    Color space : YUV
    Chroma subsampling : 4: 2: 0
    Bit depth : 8 bits
    Scan type : Progressive
    Bits/(Pixel*Frame) : 0.236
    Stream size : 2.64 GiB (89%)
    Writing library : x264 core 130 r2273 b3065e6
    Encoding settings : cabac=1/ref=1/deblock=1: 0: 0/analyse=0x3: 0x113/me=hex/subme=2/psy=1/psy_rd=1.00: 0.00/mixed_ref=0/me_range=16/chroma_me=1/trellis=0/8x8dct=1/cqm=0/deadzone=21, 11/fast_pskip=1/chroma_qp_offset=0/threads=6/lookahead_threads=2/sliced_threads=0/nr=0/decimate=1/interlaced=0/bluray_compat=0/constrained_intra=0/bframes=3/b_pyramid=2/b_adapt=1/b_bias=0/direct=1/weightb=1/open_gop=0/weightp=1/keyint=250/keyint_min=25/scenecut=40/intra_refresh=0/rc_lookahead=10/rc=abr/mbtree=1/bitrate=4019/ratetol=1.0/qcomp=0.60/qpmin=0/qpmax=69/qpstep=4/vbv_maxrate=62500/vbv_bufsize=78125/nal_hrd=none/ip_ratio=1.40/aq=1: 1.00
    Language : English
    Default : Yes
    Forced : No
    Color range : Limited
    Color primaries : BT.709
    Transfer characteristics : BT.709
    Matrix coefficients : BT.709
    Audio #1
    ID : 2
    Format : AC-3
    Format/Info : Audio Coding 3
    Mode extension : CM (complete main)
    Format settings, Endianness : Big
    Codec ID : A_AC3
    Duration : 1h 36mn
    Bit rate mode : Constant
    Bit rate : 192 Kbps
    Channel(s) : 2 channels
    Channel positions : Front: L R
    Sampling rate : 48.0 KHz
    Bit depth : 16 bits
    Compression mode : Lossy
    Stream size : 133 MiB (4%)
    Language : Russian
    Default : Yes
    Forced : No
    Audio #2
    ID : 3
    Format : AC-3
    Format/Info : Audio Coding 3
    Mode extension : CM (complete main)
    Format settings, Endianness : Big
    Codec ID : A_AC3
    Duration : 1h 36mn
    Bit rate mode : Constant
    Bit rate : 192 Kbps
    Channel(s) : 2 channels
    Channel positions : Front: L R
    Sampling rate : 48.0 KHz
    Bit depth : 16 bits
    Compression mode : Lossy
    Stream size : 133 MiB (4%)
    Language : English
    Default : No
    Forced : No
    Скриншоты






    Онлайн видео Любовь без обязательств


    Размер скачиваемого торрента: 2.96 GB (3178676432 Bytes)

    Любовь без обязательств/Sleeping with Other People (2015) WEBRip 720p | L2
    загрузка...
    Рейтинг →
     (голосов: 1, оценка 3/5, голосовать можно 1 раз )

    Другие торренты по теме:

  • Любовь без обязательств (2015) HDRip
  • Любовь без обязательств / Sleeping with Other People (2015) BDRip 1080p | iTunes
  • Любовь без обязательств / Sleeping with Other People (2015) HDRip от MegaPeer | iTunes


    • Комментарии (0):

      Информация

      Информация

        Посетители, находящиеся в группе Гости, не могут оставлять комментарии в данной новости.

        ↓ Меню



        ↓ Опрос

        А Вы добавили сайт в закладки?
        Да
        Не


        Top 10 за месяц (Фильмы)