.
Авторизация | Регистрация
Хочешь лучшие торренты? Добавь свой email!
Добавить
» » Слуга народа (2015) WEB-DLRip от GeneralFilm скачать торрент бесплатно




    Слуга народа (2015) WEB-DLRip от GeneralFilm скачать торрент бесплатно

    Опубликовал: Админ | Дата: 8-12-2015, 09:55 | Просмотров: 88



    Детально о кино
    Русское название: Слуга народа
    Создали в: 2015
    Категория жанра: Политическая комедия
    Главный режиссер: Алексей Кирющенко

    Актеры
    Владимир Зеленский, Анна Кошмал, Наталия Сумская, Виктор Сарайкин, Екатерина Кистень, Станислав Боклан, Евгений Кошевой, Александр Пикалов, Юрий Крапов, Елена Кравец

    Сюжет фильма

    Что будет, если президентом станет обычный человек из народа? Новый, честный, принципиальный и, самое главное, – умный человек.
    Именно эти мысли однажды сподвигли народ избрать президентом простого учителя истории Василия Голобородько... Неожиданно для всех страна получила гаранта, который живет в обычной квартире. Который спокойно идет по улице без армии охранников и запросто ездит на маршрутке, который получает скромную зарплату и иногда занимает у друга до зарплаты. В общем, который живет – как все. Ведь он точно знает - когда царь начнет жить как простой учитель, вскоре простой учитель заживет как царь!
    И пускай у него нет серебряных пуль и осинового кола, каждое утро Василий Петрович выходит на борьбу с нечистой силой и без устали воюет с армадой коррумпированных и насквозь прогнивших чинуш, разгребает авгиевы конюшни государства.
    Правда, он не учел одного. Система, где все привыкли безбожно воровать, откатывать и дерибанить – будет против такой заботы о народе.
    Политическая комедия Слуга народа от режиссера Алексея Кирющенко в скором времени найдет своих поклонников, которые отдают предпочтение сериалам со смыслом.
    Главный герой сериала обычный учитель истории Василий Голобородько. Василий своим образом жизни мало отличается от других тружеников - он также тянет лямку от зарплаты до зарплаты, каждое утро отправляется на работу в общественном многолюдном транспорте и радуется маленьким радостям жизни. Но однажды все изменилось. Василий Голобородько каким-то чудом стал президентом Украины. После этого жизнь совершенно изменилась, не только нашего главного героя, но и у населения страны. Ведь Василий ярый противник коррупции и первое что он сделал на президентском посту стал активно бороться со взяточничеством во всех отраслях экономики, политики и науки тоже, ничего удивительного. Клещ коррупции в нашем мире осел везде и всюду где можно присосаться к деньгам.
    Чем закончатся благие намерения бывшего учителя, ныне Президента узнаете посмотрев великолепный сериал Слуга народа на нашем сайте.
    Снималось в: Украина
    Киностудия: Студия Квартал-95
    Время просмотра: ~ 00: 24: 00 серия
    Перевод текста: Не требуетсяРусский
    Файл
    Кодек для видео: XviD
    Качество фильма: WEB-DLRip
    Информация о видео: ~ 950 Кбит/с, 688x384
    Информация о звуке: MP3, 2 ch, 128 Кбит/с
    МедиаИнфо
    Общее
    Полное имя : Sluga.Naroda.(24.serii.iz.24).2015.XviD.WEB-DLRip.by.GeneralFilm?1-02.Serii.avi
    Формат : AVI
    Формат/Информация : Audio Video Interleave
    Размер файла : 372 Мбайт
    Продолжительность : 43 м.
    Общий поток : 1199 Кбит/сек
    Программа кодирования : VirtualDubMod 1.5.10.3 | www.virtualdub-fr.org || (build 2550/release)
    Библиотека кодирования : VirtualDubMod build 2550/release
    Видео
    Идентификатор : 0
    Формат : MPEG-4 Visual
    Профиль формата : Advanced Simple@L5
    Параметр BVOP формата : 1
    Параметр QPel формата : Нет
    Параметр GMC формата : Без точки перехода
    Параметр матрицы формата : Выборочная
    Идентификатор кодека : XVID
    Идентификатор кодека/Подсказка : XviD
    Продолжительность : 43 м.
    Битрейт : 950 Кбит/сек
    Ширина : 688 пикселей
    Высота : 384 пикселя
    Соотношение сторон : 16: 9
    Частота кадров : 25, 000 кадров/сек
    Цветовое пространство : YUV
    Субдискретизация насыщенности : 4: 2: 0
    Битовая глубина : 8 бит
    Тип развёртки : Прогрессивная
    Метод сжатия : С потерями
    Бит/(Пиксели*Кадры) : 0.161
    Размер потока : 329 Мбайт (89%)
    Библиотека кодирования : XviD 73
    Аудио
    Идентификатор : 1
    Формат : MPEG Audio
    Версия формата : Version 1
    Профиль формата : Layer 3
    Идентификатор кодека : 55
    Идентификатор кодека/Подсказка : MP3
    Продолжительность : 43 м.
    Вид битрейта : Постоянный
    Битрейт : 128 Кбит/сек
    Каналы : 2 канала
    Частота : 48, 0 КГц
    Метод сжатия : С потерями
    Размер потока : 39, 7 Мбайт (11%)
    Выравнивание : Соединение по промежуткам
    Продолжительность промежутка : 40 мс. (1, 00 видеокадр)
    Время предзагрузки промежутка : 504 мс.
    Библиотека кодирования : LAME3.99r
    Залил: vsobbol
    Размер скачиваемого торрента: 3.81 GB (4095100928 Bytes)


    Слуга народа (2015) WEB-DLRip от GeneralFilm
    загрузка...
    Рейтинг →
     (голосов: 1, оценка 4/5, голосовать можно 1 раз )

    Другие торренты по теме:

  • Слуга народа / Слуга народу (2015) WEB-DL 720p от UAGet
  • Слуга народа (1 сезон: 1 серия из 24) / 2015 / РУ / WEB-DLRip (AVC)
  • Слуга народа (2015) DVB от Files-x
  • Слуга народа (1 сезон: 1-4 серии из 24) / 2015 / РУ / SATRip
  • Слуга народа (2015) WEB-DLRip-AVC от Files-x
  • Слуга народа (1 сезон: 1-8 серия из 24) / 2015 / РУ / WEB-DLRip
  • Слуга народа (2015) SATRip-AVC от Files-x
  • Слуга народа (1 сезон: 1-10 серии из 24) / 2015 / РУ / WEB-DL (1080p)


    • Комментарии (0):

      Информация

      Информация

        Посетители, находящиеся в группе Гости, не могут оставлять комментарии в данной новости.

        ↓ Меню



        ↓ Опрос

        А Вы добавили сайт в закладки?
        Да
        Не


        Top 10 за месяц (Фильмы)