.
Авторизация | Регистрация
Хочешь лучшие торренты? Добавь свой email!
Добавить




Вой / Howl (2015) BDRip 720p | L2, L1 скачать торрент бесплатно

Опубликовал: Админ | Дата: 7-12-2015, 05:01 | Просмотров: 89



Детально о кино
Русское название: Вой
Русское название в мировом прокате: Howl
Создали в: 2015
Категория жанра: ужасы
Главный режиссер: Пол Хайет

Актеры
Эдвард Спелирс, Холли Уэстон
Эллиот Кауэн, Амит Шах, Сэм Гиттинс, Шона МакДональд, Дункан Престон, Аня Марсон, Рози Дэй, Кэлвин Дин


Сюжет фильма
После того, как зверь напал на пассажиров поезда, им нужно объединиться, что бы дожить до утра.


Снималось в: Великобритания/Starchild Pictures
Время просмотра: 01: 32: 25
Тип перевода: Любительское (двухголосое) Sunshine Studio/Любительское (одноголосое) Paul Bunyan, перевод Paul Bunyan
Файл
Тип видео: MKV
Качество фильма: BDRip 720p
Информация о видео: MPEG-4 AVC, 5249 kb/s, 1280x536
Информация о звуке 1: Russian L2: AC3, 192 kb/s (2 ch) Sunshine Studio
Информация о звуке 2: Russian L1: AC3, 448 kb/s (6 ch) Paul Bunyan
Информация о звуке 3: English: AC3, 448 kb/s (6 ch)



MI

Format : Matroska
Format version : Version 2
File size : 4.09 GiB
Duration : 1h 32mn
Overall bit rate : 6 335 Kbps
Encoded date : UTC 2015-12-07 00: 12: 06
Writing application : mkvmerge v7.8.0 (;River Man;) 32bit built on Apr 3 2015 12: 11: 22
Writing library : libebml v1.3.1 + libmatroska v1.4.2
Video
ID : 1
Format : AVC
Format/Info : Advanced Video Codec
Format profile : High@L4.1
Format settings, CABAC : Yes
Format settings, ReFrames : 5 frames
Codec ID : V_MPEG4/ISO/AVC
Duration : 1h 32mn
Bit rate : 5 249 Kbps
Width : 1 280 pixels
Height : 536 pixels
Display aspect ratio : 2.40: 1
Frame rate mode : Constant
Frame rate : 24.000 fps
Color space : YUV
Chroma subsampling : 4: 2: 0
Bit depth : 8 bits
Scan type : Progressive
Bits/(Pixel*Frame) : 0.319
Stream size : 3.31 GiB (81%)
Writing library : x264 core 148 r2638 7599210
Encoding settings : cabac=1/ref=5/deblock=1: 0: 0/analyse=0x3: 0x113/me=umh/subme=8/psy=1/psy_rd=1.00: 0.00/mixed_ref=1/me_range=16/chroma_me=1/trellis=1/8x8dct=1/cqm=0/deadzone=21, 11/fast_pskip=1/chroma_qp_offset=-2/threads=12/lookahead_threads=2/sliced_threads=0/nr=0/decimate=1/interlaced=0/bluray_compat=0/constrained_intra=0/bframes=3/b_pyramid=2/b_adapt=2/b_bias=0/direct=3/weightb=1/open_gop=0/weightp=2/keyint=240/keyint_min=24/scenecut=40/intra_refresh=0/rc_lookahead=50/rc=2pass/mbtree=1/bitrate=5249/ratetol=1.0/qcomp=0.60/qpmin=0/qpmax=69/qpstep=4/cplxblur=20.0/qblur=0.5/vbv_maxrate=62500/vbv_bufsize=78125/nal_hrd=none/filler=0/ip_ratio=1.40/aq=1: 1.00
Language : English
Default : Yes
Forced : No
Audio #1
ID : 2
Format : AC-3
Format/Info : Audio Coding 3
Mode extension : CM (complete main)
Format settings, Endianness : Big
Codec ID : A_AC3
Duration : 1h 32mn
Bit rate mode : Constant
Bit rate : 192 Kbps
Channel(s) : 2 channels
Channel positions : Front: L R
Sampling rate : 48.0 KHz
Bit depth : 16 bits
Compression mode : Lossy
Stream size : 127 MiB (3%)
Title : Sunshine Studio
Language : Russian
Default : Yes
Forced : No
Audio #2
ID : 3
Format : AC-3
Format/Info : Audio Coding 3
Mode extension : CM (complete main)
Format settings, Endianness : Big
Codec ID : A_AC3
Duration : 1h 32mn
Bit rate mode : Constant
Bit rate : 448 Kbps
Channel(s) : 6 channels
Channel positions : Front: L C R, Side: L R, LFE
Sampling rate : 48.0 KHz
Bit depth : 16 bits
Compression mode : Lossy
Stream size : 296 MiB (7%)
Title : Paul Bunyan
Language : Russian
Default : No
Forced : No
Audio #3
ID : 4
Format : AC-3
Format/Info : Audio Coding 3
Mode extension : CM (complete main)
Format settings, Endianness : Big
Codec ID : A_AC3
Duration : 1h 32mn
Bit rate mode : Constant
Bit rate : 448 Kbps
Channel(s) : 6 channels
Channel positions : Front: L C R, Side: L R, LFE
Sampling rate : 48.0 KHz
Bit depth : 16 bits
Compression mode : Lossy
Stream size : 296 MiB (7%)
Language : English
Default : No
Forced : No
Menu
00: 00: 00.000 : en: 00: 00: 00.000
00: 03: 31.500 : en: 00: 03: 31.500
00: 11: 11.500 : en: 00: 11: 11.500
00: 19: 36.500 : en: 00: 19: 36.500
00: 25: 55.500 : en: 00: 25: 55.500
00: 35: 25.500 : en: 00: 35: 25.500
00: 45: 28.917 : en: 00: 45: 28.917
00: 52: 24.500 : en: 00: 52: 24.500
01: 00: 43.500 : en: 01: 00: 43.500
01: 10: 11.500 : en: 01: 10: 11.500
01: 19: 28.500 : en: 01: 19: 28.500
01: 28: 19.500 : en: 01: 28: 19.500
Скриншоты

Размер скачиваемого торрента: 4.09 GB (4390818879 Bytes)

Вой/Howl (2015) BDRip 720p | L2, L1
загрузка...
Рейтинг →
 (голосов: 1, оценка 3/5, голосовать можно 1 раз )

Другие торренты по теме:

  • Альфа и Омега: Приключения праздничного воя / Alpha and Omega 2: A Howl-iday Adventure (2013) BDRip 720p | P скачать через торрент бесплатно
  • Альфа и Омега: Приключения праздничного воя / Alpha and Omega 2: A Howl-iday Adventure (2013) BDRip 720p от HELLYWOOD | P скачать через торрент бесплатно
  • Альфа и Омега: Приключения праздничного воя / Alpha and Omega 2: A Howl-iday Adventure (2013) BDRip-AVC от leonardo 59 Scarabey
  • Альфа и Омега: Приключения праздничного воя / Alpha and Omega 2: A Howl-iday Adventure (2013) BDRip 720p от leonardo 59 Scarabey
  • Альфа и Омега: Приключения праздничного воя / Alpha and Omega 2: A Howl-iday Adventure (2013) BDRip | P от BroDim скачать через торрент бесплатно
  • Вопль / Howl (2010) BDRip 720p | L1 , P2
  • Вой / Howl (2015) BDRip 1080p от HDReactor | L1
  • Альфа и Омега: Приключения праздничного воя / Alpha and Omega 2: A Howl-iday Adventure (2013) BDRip от HQCLUB


    • Комментарии (0):

      Информация

      Информация

        Посетители, находящиеся в группе Гости, не могут оставлять комментарии в данной новости.

        ↓ Меню



        ↓ Опрос

        А Вы добавили сайт в закладки?
        Да
        Не


        Top 10 за месяц (Фильмы)