.
Авторизация | Регистрация
Хочешь лучшие торренты? Добавь свой email!
Добавить
» » Готэм / Gotham (2015) WEB-DLRip | КПК | LostFilm скачать торрент бесплатно




    Готэм / Gotham (2015) WEB-DLRip | КПК | LostFilm скачать торрент бесплатно

    Опубликовал: Админ | Дата: 4-12-2015, 13:34 | Просмотров: 123


    • Готэм/Gotham •
    ? Снималось в: США
    ? Создали в: DC Comics, Primrose Hill Productions, Warner Bros. Television
    ? Создали в: 2015
    ? Категория жанра: триллер, драма, криминал
    ? Главный режиссёр: Т.Дж. Скотт, Дэнни Кэннон, Пол А. Эдвардс
    ?
    Актеры
    Бен МакКензи, Донал Лог, Дэвид Мазоуз, Забрина Гевара, Шон Пертуи, Робин Тейлор, Эрин Ричардс, Камрен Бикондова, Кори Майкл Смит, Джада Пинкетт Смит и др.

    ? Перевод текста: Профессиональный (многоголосый, закадровый от Lostfilm)


    Описание фильма
    Детектив Джеймс Гордон и его напарник Харви Баллок приступили к работе в департаменте полиции Готэма. Они расследуют убийства. Последнее дело очень сложное, поэтому к мужчинам примыкает Сара Эссен, которая поможет вести дело по Томасу и Марте Уэйн. Гордон за время расследования успевает познакомиться с сыном убитых Брюсом Уэйном, который после гибели родителей находится под опекой дворецкого Альфреда, который работает при семье Уэйн. Но не только смерть Томаса и Марты является главным делом Гордона. Ему приходится решать проблемы с местным главарем банды — женщиной по имени Фиш Муни, а также с очень опасными злодеями, населяющими Готэм. Среди проходимцев затесались Освальд Кобблпот и Селина Кайл. В итоге, Гордон фокусируется на дружбе с молодым Брюсом, чтобы в будущем сделать из маленького мальчика Тёмного рыцаря — защитника Готэма.



    ? Качество фильма: WEB-DLRip
    ? Время просмотра: по ~ 00: 44: 00

    ? Тип видео: MP4
    ? Информация о видео кодек: H.264
    ? Информация о звуке кодек: AAC-LC
    ? Свойства видео: 640x360 (1: 78: 1), 24.000 fps, 600 kbps (0.109 bit/pixel)
    ? Свойства аудио: 48.0 KHz, 2 ch, 128 kbps
    MediaInfo
    General
    Complete name : Gotham.S02E01.WEB-DLRip.rus.LostFilm.TV.mp4
    Format : MPEG-4
    Format profile : Base Media
    Codec ID : isom
    File size : 231 MiB
    Duration : 44mn 10s
    Overall bit rate mode : Variable
    Overall bit rate : 731 Kbps
    Encoded date : UTC 2015-11-26 18: 01: 46
    Tagged date : UTC 2015-11-26 18: 01: 46

    Video
    ID : 1
    Format : AVC
    Format/Info : Advanced Video Codec
    Format profile : High@L4.1
    Format settings, CABAC : Yes
    Format settings, ReFrames : 9 frames
    Codec ID : avc1
    Codec ID/Info : Advanced Video Coding
    Duration : 44mn 10s
    Bit rate : 600 Kbps
    Maximum bit rate : 2 646 Kbps
    Width : 640 pixels
    Height : 360 pixels
    Display aspect ratio : 16: 9
    Frame rate mode : Constant
    Frame rate : 24.000 fps
    Color space : YUV
    Chroma subsampling : 4: 2: 0
    Bit depth : 8 bits
    Scan type : Progressive
    Bits/(Pixel*Frame) : 0.109
    Stream size : 189 MiB (82%)
    Title : 264@GPAC0.5.2-DEV-rev248-g39d5978-master
    Writing library : x264 core 146 r2538 121396c
    Encoding settings : cabac=1/ref=9/deblock=1: -3: -3/analyse=0x3: 0x113/me=umh/subme=11/psy=1/psy_rd=1.00: 0.00/mixed_ref=1/me_range=32/chroma_me=1/trellis=2/8x8dct=1/cqm=0/deadzone=21, 11/fast_pskip=0/chroma_qp_offset=-2/threads=6/lookahead_threads=1/sliced_threads=0/nr=0/decimate=0/interlaced=0/bluray_compat=0/constrained_intra=0/bframes=9/b_pyramid=2/b_adapt=2/b_bias=0/direct=3/weightb=1/open_gop=0/weightp=2/keyint=240/keyint_min=23/scenecut=40/intra_refresh=0/rc=2pass/mbtree=0/bitrate=600/ratetol=1.0/qcomp=0.60/qpmin=0/qpmax=69/qpstep=4/cplxblur=20.0/qblur=0.5/ip_ratio=1.40/pb_ratio=1.30/aq=1: 1.00
    Encoded date : UTC 2015-11-26 18: 01: 46
    Tagged date : UTC 2015-11-26 18: 01: 59

    Audio
    ID : 2
    Format : AAC
    Format/Info : Advanced Audio Codec
    Format profile : LC
    Codec ID : 40
    Duration : 44mn 10s
    Bit rate mode : Variable
    Bit rate : 128 Kbps
    Maximum bit rate : 148 Kbps
    Channel(s) : 2 channels
    Channel positions : Front: L R
    Sampling rate : 48.0 KHz
    Compression mode : Lossy
    Stream size : 40.4 MiB (17%)
    Encoded date : UTC 2015-11-26 14: 32: 13
    Tagged date : UTC 2015-11-26 18: 01: 59
    Скриншоты

    Залил: ProT1gR
    Размер скачиваемого торрента: 2.47 GB (2657258555 Bytes)

    Готэм/Gotham (2015) WEB-DLRip | КПК | LostFilm
    загрузка...
    Рейтинг →
     (голосов: 1, оценка 4/5, голосовать можно 1 раз )

    Другие торренты по теме:

  • Готэм / Gotham (2014) HDTVRip | Kerob скачать через торрент бесплатно
  • Готэм / Gotham скачать через торрент бесплатно
  • Готэм / Gotham (2014) WEB-DLRip от Scarabey | LostFilm
  • Готэм / Gotham (2014) WEB-DL 720p | BaibaKo скачать через торрент бесплатно
  • Готэм / Gotham (2014) WEB-DLRip | BaibaKo скачать через торрент бесплатно
  • Готэм / Gotham (2014) WEB-DL 1080p | BaibaKo скачать через торрент бесплатно
  • Готэм / Gotham (2014) WEB-DL 1080p | HamsterStudio скачать через торрент бесплатно
  • Готэм / Gotham (2014) WEB-DL 720p | HamsterStudio скачать через торрент бесплатно


    • Комментарии (0):

      Информация

      Информация

        Посетители, находящиеся в группе Гости, не могут оставлять комментарии в данной новости.

        ↓ Меню



        ↓ Опрос

        А Вы добавили сайт в закладки?
        Да
        Не


        Top 10 за месяц (Фильмы)