.
Авторизация | Регистрация
Хочешь лучшие торренты? Добавь свой email!
Добавить
» » К югу от ада / South of Hell (2015) HDTVRip от NNM-CLUB | SunshineStudio скачать торрент бесплатно




    К югу от ада / South of Hell (2015) HDTVRip от NNM-CLUB | SunshineStudio скачать торрент бесплатно

    Опубликовал: Админ | Дата: 1-12-2015, 11:13 | Просмотров: 170



    Детально о кино
    Русское название: К югу от ада
    Русское название в мировом прокате: South of Hell
    Создали в: 2015
    Категория жанра: ужасы, фэнтези, триллер, драма
    Главный режиссер: Элай Рот

    Актеры
    Закари Бут, Дэна Фоксворф, Билл Ирвин, Дрю Морлейн, Ламман Ракер, Полина Сингер, Мена Сувари, Анна Шрирам, Барри У. Джеральд мл., Катрин Джеральд

    Сюжет фильма

    Саванна, Джорджия — неуловимый многоликий город, в котором живет сногсшибательная Мария Абаскал, 30-летняя охотница на демонов, зарабатывающая себе этим на жизнь. Мария опытна и бесстрашна в своем преследовании демонов, поселяющихся в людях. Как и те, на кого она охотится, Мария ведет непрекращающуюся борьбу со своим собственным демоном — Абигейл, — которая живет в ней, питаясь злом, которое Мария изгоняет из других. Мария и Абигейл делят на двоих одну душу и судьбу, но поскольку Мария отчаянно пытается одержать верх над Абигейл, ей предстоит узнать, на что способна Абигейл, чтобы остаться ее частью.
    Снималось в: США
    Время просмотра: ~00: 40: 00
    Перевод текста: Любительский (двухголосый, закадровый)
    Файл
    Качество фильма: HDTVRip
    Информация о видео: Xvid, 720x400, ~1200 kbps
    Информация о звуке: MP3, 2 ch, 128 kbps
    Сэмпл
    Mediainfo:

    Формат : AVI
    Формат/Информация : Audio Video Interleave
    Размер файла : 371 Мбайт
    Продолжительность : 39 м.
    Общий поток : 1309 Кбит/сек
    Программа кодирования : Lavf56.25.101
    Видео
    Идентификатор : 0
    Формат : MPEG-4 Visual
    Профиль формата : Simple@L5
    Параметр BVOP формата : 1
    Параметр QPel формата : Нет
    Параметр GMC формата : Без точки перехода
    Параметр матрицы формата : Default (MPEG)
    Идентификатор кодека : XVID
    Идентификатор кодека/Подсказка : XviD
    Продолжительность : 39 м.
    Битрейт : 1167 Кбит/сек
    Ширина : 720 пикселей
    Высота : 400 пикселей
    Соотношение сторон : 16: 9
    Частота кадров : 29, 970 кадров/сек
    Цветовое пространство : YUV
    Субдискретизация насыщенности : 4: 2: 0
    Битовая глубина : 8 бит
    Тип развёртки : Прогрессивная
    Метод сжатия : С потерями
    Бит/(Пиксели*Кадры) : 0.135
    Размер потока : 331 Мбайт (89%)
    Библиотека кодирования : XviD 67
    Аудио
    Идентификатор : 1
    Формат : MPEG Audio
    Версия формата : Version 1
    Профиль формата : Layer 3
    Режим : Joint stereo
    Расширение режима : MS Stereo
    Идентификатор кодека : 55
    Идентификатор кодека/Подсказка : MP3
    Продолжительность : 39 м.
    Вид битрейта : Постоянный
    Битрейт : 128 Кбит/сек
    Каналы : 2 канала
    Частота : 48, 0 КГц
    Метод сжатия : С потерями
    Размер потока : 36, 3 Мбайт (10%)
    Выравнивание : Соединение по промежуткам
    Продолжительность промежутка : 24 мс. (0, 72 видеокадр)

    Скриншоты:


    Онлайн видео К югу от ада


    Размер скачиваемого торрента: 1.84 GB (1972459302 Bytes)

    К югу от ада/South of Hell (2015) HDTVRip от NNM-CLUB | SunshineStudio
    загрузка...
    Рейтинг →
     (голосов: 1, оценка 4/5, голосовать можно 1 раз )

    Другие торренты по теме:

  • К югу от ада / South of Hell (2015) HDTVRip | SunshineStudio
  • К югу от ада (1 сезон: 1-7 серии из 8) / South of Hell / 2015 / ЛД (Sunshine Studio) / HDTVRip (720p)
  • К югу от ада / South of Hell (2015) HDTVRip | Alternative Production
  • К югу от преисподней / South of Hell (2015) WEB-DL 720p | Jaskier
  • К югу от ада / South of Hell (2015) WEB-DL 1080p | NewStudio
  • К югу от ада / South of Hell (2015) WEB-DL 720p | Jaskier


    • Комментарии (0):

      Информация

      Информация

        Посетители, находящиеся в группе Гости, не могут оставлять комментарии в данной новости.

        ↓ Меню



        ↓ Опрос

        А Вы добавили сайт в закладки?
        Да
        Не


        Top 10 за месяц (Фильмы)