.
Авторизация | Регистрация
Хочешь лучшие торренты? Добавь свой email!
Добавить
» » Приключения Жерара / The Adventures of Gerard (1970) HDTVRip | P скачать торрент бесплатно




    Приключения Жерара / The Adventures of Gerard (1970) HDTVRip | P скачать торрент бесплатно

    Опубликовал: Админ | Дата: 24-11-2015, 05:01 | Просмотров: 100



    Детально о кино
    Русское название: Приключения Жерара
    Русское название в мировом прокате: The Adventures of Gerard
    Создали в: 1970
    Категория жанра: комедия, приключения
    Главный режиссер: Ежи Сколимовский

    Актеры
    Питер МакЭнери, Клаудия Кардинале, Илай Уоллак, Джек Хоукинс, Марк Бёрнс, Норман Россингтон, Джон Невилл, Паоло Стоппа, Иван Десни, Леопольдо Триесте

    Описание фильма
    Экранизация популярного произведения Артура Конан Дойла о приключениях и подвигах смельчака и красавца, любимца женщин, отчаянного дуэлянта, кавалериста Жерара во время наполеоновских войн. Картина носит несколько сюрреалистический характер и визуально свидетельствует о богатом воображении режиссера. Илай Уоллак в роли Наполеона.

    Снималось в: Великобритания, Швейцария
    Время просмотра: 01: 27: 58
    Перевод текста:
    1. Профессиональный (многоголосый закадровый) - НТВ+
    2. Профессиональный (многоголосый закадровый) - 5 канал
    3. Оригинал (английский)
    Файл
    Тип видео: AVI
    Качество фильма: HDTVRip
    Информация о видео: 720x304, (2, 35: 1), XviD, 1777 Кбит/сек, 25, 000 кадров/сек
    Информация о звуке №1: AC3, 192 Кбит/сек, 2 канала, 48, 0 КГц - НТВ+
    Информация о звуке №2: AC3, 192 Кбит/сек, 2 канала, 48, 0 КГц - 5 канал
    Информация о звуке №3: AC3, 192 Кбит/сек, 2 канала, 48, 0 КГц - Оригинал (английский)
    Скриншоты:

    MediaInfo:
    Общее
    Полное имя : K: Приключения Жерара.avi
    Формат : AVI
    Формат/Информация : Audio Video Interleave
    Размер файла : 1, 46 Гбайт
    Продолжительность : 1 ч. 27 м.
    Общий поток : 2372 Кбит/сек
    Название фильма : Приключения Жерара/The Adventures of Gerard (1970)
    Программа кодирования : VirtualDubMod 1.5.10.2 (build 2540/release)
    Библиотека кодирования : VirtualDubMod build 2540/release
    Видео
    Идентификатор : 0
    Формат : MPEG-4 Visual
    Профиль формата : Advanced Simple@L5
    Параметр BVOP формата : 1
    Параметр QPel формата : Нет
    Параметр GMC формата : Без точки перехода
    Параметр матрицы формата : Выборочная
    Идентификатор кодека : XVID
    Идентификатор кодека/Подсказка : XviD
    Продолжительность : 1 ч. 27 м.
    Битрейт : 1777 Кбит/сек
    Ширина : 720 пикселей
    Высота : 304 пикселя
    Соотношение сторон : 2, 35: 1
    Частота кадров : 25, 000 кадров/сек
    Цветовое пространство : YUV
    Субдискретизация насыщенности : 4: 2: 0
    Битовая глубина : 8 бит
    Тип развёртки : Прогрессивная
    Метод сжатия : С потерями
    Бит/(Пиксели*Кадры) : 0.325
    Размер потока : 1, 09 Гбайт (75%)
    Библиотека кодирования : XviD 65
    Аудио #1
    Идентификатор : 1
    Формат : AC-3
    Формат/Информация : Audio Coding 3
    Расширение режима : CM (complete main)
    Параметр Endianness формата : Big
    Идентификатор кодека : 2000
    Продолжительность : 1 ч. 27 м.
    Вид битрейта : Постоянный
    Битрейт : 192 Кбит/сек
    Каналы : 2 канала
    Расположение каналов : Front: L R
    Частота : 48, 0 КГц
    Метод сжатия : С потерями
    Размер потока : 121 Мбайт (8%)
    Выравнивание : Разделение по промежуткам
    Продолжительность промежутка : 40 мс. (1, 00 видеокадр)
    Время предзагрузки промежутка : 500 мс.
    Заголовок : Профессиональный (многоголосый закадровый) НТВ+
    Аудио #2
    Идентификатор : 2
    Формат : AC-3
    Формат/Информация : Audio Coding 3
    Расширение режима : CM (complete main)
    Параметр Endianness формата : Big
    Идентификатор кодека : 2000
    Продолжительность : 1 ч. 27 м.
    Вид битрейта : Постоянный
    Битрейт : 192 Кбит/сек
    Каналы : 2 канала
    Расположение каналов : Front: L R
    Частота : 48, 0 КГц
    Метод сжатия : С потерями
    Размер потока : 121 Мбайт (8%)
    Выравнивание : Разделение по промежуткам
    Продолжительность промежутка : 40 мс. (1, 00 видеокадр)
    Время предзагрузки промежутка : 500 мс.
    Заголовок : Профессиональный (многоголосый закадровый) 5 канал
    Аудио #3
    Идентификатор : 3
    Формат : AC-3
    Формат/Информация : Audio Coding 3
    Расширение режима : CM (complete main)
    Параметр Endianness формата : Big
    Идентификатор кодека : 2000
    Продолжительность : 1 ч. 27 м.
    Вид битрейта : Постоянный
    Битрейт : 192 Кбит/сек
    Каналы : 2 канала
    Расположение каналов : Front: L R
    Частота : 48, 0 КГц
    Метод сжатия : С потерями
    Размер потока : 121 Мбайт (8%)
    Выравнивание : Разделение по промежуткам
    Продолжительность промежутка : 40 мс. (1, 00 видеокадр)
    Время предзагрузки промежутка : 500 мс.
    Заголовок : Английский

    Залил: Gepg

    Онлайн видео Приключения Жерара


    Размер скачиваемого торрента: 1.46 GB (1565110272 Bytes)

    Приключения Жерара/The Adventures of Gerard (1970) HDTVRip | P
    загрузка...
    Рейтинг →
     (голосов: 1, оценка 3/5, голосовать можно 1 раз )

    Другие торренты по теме:

  • Владимир Сутеев - Приключения Пифа. Новые приключения Пифа (1993) PDF от RG Superdetki
  • Приключения Карфагена. Новые приключения Карфагена / Les Naufrages de Carthage. Viva Carthago (2003) DVDRip от KinoRay Sheikn скачать через торрент бесплатно
  • Приключения принца Флоризеля (Клуб самоубийц или приключения титулованной особы) скачать через торрент бесплатно
  • Приключения принца Флоризеля (Клуб самоубийц или приключения титулованной особы) / 1979 / РУ / HDTVRip (720p)
  • Невероятные приключения янки в Африке / Yankee Zulu (1993) DVDRip-AVC
  • Приключения морского дракона / Legend of the Sea (2007) DVDRip от Files-x
  • Смешарики. Новые приключения. Выпуск 1. Шуша (Новогоднее издание) (2012) DVDRip от hitway
  • Смешарики. Новые приключения. Выпуск 1. Шуша - Новогоднее издание (2012) DVD-5


    • Комментарии (0):

      Информация

      Информация

        Посетители, находящиеся в группе Гости, не могут оставлять комментарии в данной новости.

        ↓ Меню



        ↓ Опрос

        А Вы добавили сайт в закладки?
        Да
        Не


        Top 10 за месяц (Фильмы)