.
Авторизация | Регистрация
Хочешь лучшие торренты? Добавь свой email!
Добавить
» » Маска Сатаны / La Maschera del demonio (1960) BDRemux | P2, A скачать торрент бесплатно




    Маска Сатаны / La Maschera del demonio (1960) BDRemux | P2, A скачать торрент бесплатно

    Опубликовал: Админ | Дата: 22-11-2015, 05:06 | Просмотров: 128



    Детально о кино
    Русское название: Маска Сатаны
    Русское название в мировом прокате: La Maschera del demonio/Black Sunday
    Создали в: 1960
    Категория жанра: ужасы
    Главный режиссер: Марио Бава

    Актеры
    Барбара Стил, Джон Ричардсон, Андреа Кекки, Иво Гаррани, Артуро Доминичи, Энрико Оливьери, Антонио Пьерфедеричи, Тино Бьянчи, Клара Бинди, Марио Пассанте

    Описание фильма
    Инквизиция объявляет княжну Азу ведьмой и приговаривает ее к смерти необычным способом — прибивают к лицу шипами железную маску. Двести лет спустя в Миргород попадают доктор Круваян и его молодой помощник Андрей Горобец. Прогуливаясь по округе, они находят старую заброшенную часовню, в склепе которой покоится Аза. Роковое стечение обстоятельств оживляет красотку, и она, для начала куснув Круваяна, начинает истреблять своих потомков. Горобец, влюбившийся в молодую княжну Катю, как две капли воды похожую на Азу, пытается разобраться в нагромождении жутких событий, происходящих в замке…

    Снималось в: Италия
    Время просмотра: 01: 26: 52
    Перевод текста 1: Профессиональный (двухголосый, закадровый)
    Перевод текста 2: Авторский (одноголосый, закадровый) Андрей Васильев
    Файл
    Кодек для видео: MPEG-4
    Качество фильма: BDRemux {La maschera del demonio 1960 1080p Blu-ray AVC LPCM 2.0-ESiR}
    Информация о видео: 25942 kbps/1080p/23, 976 fps/16: 9/High Profile 4.1
    Информация о звуке 1: Dolby Digital Audio Russian 2.0/48 kHz/192 kbps | DVO
    Информация о звуке 2: Dolby Digital Audio Russian 2.0/48 kHz/192 kbps | Васильев
    Информация о звуке 3: English/DTS-HD Master Audio/2.0/48 kHz/670 kbps/16-bit (DTS Core: 2.0/48 kHz/510 kbps/16-bit)
    Субтитры: Отсутствуют
    Скриншоты
    MediaInfo
    General
    Complete name : Y: По режиссерам+ Mario BavaМаска Сатаны (1960. Maschera del demonio, La).mkv
    Format : Matroska
    File size : 16.4 GiB
    Duration : 1h 27mn
    Overall bit rate : 27.0 Mbps
    Encoded date : UTC 2012-10-06 20: 44: 38
    Writing application : mkvmerge v4.9.1 (;Ich will;) сборка от Jul 11 2011 23: 53: 15
    Writing library : libebml v1.2.1 + libmatroska v1.1.1
    Video
    ID : 1
    Format : AVC
    Format/Info : Advanced Video Codec
    Format profile : High@L4.1
    Format settings, CABAC : Yes
    Format settings, ReFrames : 4 frames
    Muxing mode : Container profile=Unknown@0.0
    Codec ID : V_MPEG4/ISO/AVC
    Duration : 1h 27mn
    Bit rate mode : Variable
    Maximum bit rate : 38.0 Mbps
    Width : 1 920 pixels
    Height : 1 080 pixels
    Display aspect ratio : 16: 9
    Frame rate : 23.976 fps
    Standard : NTSC
    Color space : YUV
    Chroma subsampling : 4: 2: 0
    Bit depth : 8 bits
    Scan type : Progressive
    Title : La.maschera.del.demonio.1960.1080p.Blu-ray.AVC.LPCM.2.0-ESiR
    Language : Italian
    Color primaries : BT.709-5, BT.1361, IEC 61966-2-4, SMPTE RP177
    Transfer characteristics : BT.709-5, BT.1361
    Matrix coefficients : BT.709-5, BT.1361, IEC 61966-2-4 709, SMPTE RP177
    Audio #1
    ID : 2
    Format : AC-3
    Format/Info : Audio Coding 3
    Mode extension : CM (complete main)
    Codec ID : A_AC3
    Duration : 1h 27mn
    Bit rate mode : Constant
    Bit rate : 192 Kbps
    Channel(s) : 2 channels
    Channel positions : Front: L R
    Sampling rate : 48.0 KHz
    Bit depth : 16 bits
    Stream size : 120 MiB (1%)
    Title : DVO
    Language : Russian
    Audio #2
    ID : 3
    Format : AC-3
    Format/Info : Audio Coding 3
    Mode extension : CM (complete main)
    Codec ID : A_AC3
    Duration : 1h 27mn
    Bit rate mode : Constant
    Bit rate : 192 Kbps
    Channel(s) : 2 channels
    Channel positions : Front: L R
    Sampling rate : 48.0 KHz
    Bit depth : 16 bits
    Stream size : 120 MiB (1%)
    Title : AVO Андрей Васильев
    Language : Russian
    Audio #3
    ID : 4
    Format : DTS
    Format/Info : Digital Theater Systems
    Format profile : MA
    Codec ID : A_DTS
    Duration : 1h 27mn
    Bit rate mode : Variable
    Channel(s) : 2 channels
    Channel positions : Front: L R
    Sampling rate : 48.0 KHz
    Bit depth : 16 bits
    Language : English
    Menu
    00: 00: 00.000 : en: 00: 00: 00.000
    00: 09: 15.346 : en: 00: 09: 15.346
    00: 18: 31.902 : en: 00: 18: 31.902
    00: 25: 05.337 : en: 00: 25: 05.337
    00: 32: 38.165 : en: 00: 32: 38.165
    00: 43: 31.859 : en: 00: 43: 31.859
    00: 50: 06.670 : en: 00: 50: 06.670
    00: 57: 46.963 : en: 00: 57: 46.963
    01: 09: 57.151 : en: 01: 09: 57.151
    01: 16: 46.602 : en: 01: 16: 46.602


    Онлайн видео Маска Сатаны


    Размер скачиваемого торрента: 16.38 GB (17593174337 Bytes)

    Маска Сатаны/La Maschera del demonio (1960) BDRemux | P2, A
    загрузка...
    Рейтинг →
     (голосов: 1, оценка 3/5, голосовать можно 1 раз )

    Другие торренты по теме:

  • Маска Сатаны / La Maschera del demonio / Black Sunday (1960) DVDRip от Video Dead | All Films | A
  • Маска Сатаны / La maschera del demonio (1960) BDRip-AVC от ExKinoRay | P2, A скачать через торрент бесплатно


    • Комментарии (0):

      Информация

      Информация

        Посетители, находящиеся в группе Гости, не могут оставлять комментарии в данной новости.

        ↓ Меню



        ↓ Опрос

        А Вы добавили сайт в закладки?
        Да
        Не


        Top 10 за месяц (Фильмы)