.
Авторизация | Регистрация
Хочешь лучшие торренты? Добавь свой email!
Добавить
» » Капитан Немо (1977) DVDRip от New-Team скачать торрент бесплатно




    Капитан Немо (1977) DVDRip от New-Team скачать торрент бесплатно

    Опубликовал: Админ | Дата: 19-11-2015, 13:06 | Просмотров: 115



    Создали в: 1975
    Снималось в: СССР
    Киностудия: Одесская киностудия
    Категория жанра: фантастика, боевик, приключения
    Время просмотра: 3 серии ~ по 1 ч. 10 мин.
    Перевод текста: не требуется
    Субтитры: нет
    Оригинальная аудиодорожка: русский
    Главный режиссер: Василий Левин

    Актеры

    Владислав Дворжецкий, Юрий Родионов, Михаил Кононов, Владимир Талашко, Марианна Вертинская, Владимир Басов, Виктор Демерташ, Геннадий Нилов, Александр Пороховщиков, Гиви Тохадзе, Земфира Цахилова, Николай Дупак, Юрий Меншагин...
    Полный список актёров
    Описание:
    Телесериал снят по мотивам романов Жюля Верна 20000 лье под водой и Паровой дом.
    Морское чудовище уничтожает военные корабли, и знаменитый профессор Аронакс отправляется в карательную экспедицию. После неудачного сражения с чудовищем корабль идет ко дну, а профессор, его слуга Консель и китобой Нед Лэнд попадают на подводный корабль и совершают удивительное путешествие под водой.
    Первая серия называется Железный кит, вторая - Принц Даккар, третья - Наутилус продолжает борьбу.




    Исходник: DVD5 R5 + DVD9 R5
    Качество фильма видео: DVDRip
    Тип видео видео: AVI
    Информация о видео: 720х544 (4: 3), 25 fps, XviD ~ 1895 kbps avg, 0.194 bit/pixel
    Информация о звуке: 48 kHz, Dolby Digital AC3 5.1, 384 kbps
    Раздача от:
    Список серий:

    1-я серия: Железный кит
    2-я серия: Принц Даккар
    3-я серия: Наутилус продолжает борьбу

    MediaInfo

    Общее
    Полное имя : Kapitan.Nemo.1975.DVDRip_New-team_by_AVP_Studio1.avi
    Формат : AVI
    Формат/Информация : Audio Video Interleave
    Размер файла : 1, 17 Гбайт
    Продолжительность : 1 ч. 12 м.
    Общий поток : 2289 Кбит/сек
    Программа кодирования : VirtualDubMod 1.5.10.3 | www.virtualdub-fr.org || (build 2550/release)
    Библиотека кодирования : VirtualDubMod build 2550/release
    Видео
    Идентификатор : 0
    Формат : MPEG-4 Visual
    Профиль формата : Advanced Simple@L5
    Параметр BVOP формата : 1
    Параметр QPel формата : Нет
    Параметр GMC формата : Без точки перехода
    Параметр матрицы формата : Выборочная
    Идентификатор кодека : XVID
    Идентификатор кодека/Подсказка : XviD
    Продолжительность : 1 ч. 12 м.
    Битрейт : 1895 Кбит/сек
    Ширина : 720 пикселей
    Высота : 544 пикселя
    Соотношение сторон : 4: 3
    Частота кадров : 25, 000 кадров/сек
    Цветовое пространство : YUV
    Субдискретизация насыщенности : 4: 2: 0
    Битовая глубина : 8 бит
    Тип развёртки : Прогрессивная
    Метод сжатия : С потерями
    Бит/(Пиксели*Кадры) : 0.194
    Размер потока : 989 Мбайт (83%)
    Библиотека кодирования : XviD 73
    Аудио
    Идентификатор : 1
    Формат : AC-3
    Формат/Информация : Audio Coding 3
    Расширение режима : CM (complete main)
    Параметр Endianness формата : Big
    Идентификатор кодека : 2000
    Продолжительность : 1 ч. 12 м.
    Вид битрейта : Постоянный
    Битрейт : 384 Кбит/сек
    Каналы : 6 каналов
    Расположение каналов : Front: L C R, Side: L R, LFE
    Частота : 48, 0 КГц
    Метод сжатия : С потерями
    Размер потока : 200 Мбайт (17%)
    Выравнивание : Разделение по промежуткам
    Продолжительность промежутка : 40 мс. (1, 00 видеокадр)
    Время предзагрузки промежутка : 500 мс

    Скриншоты



    Залил: AVPStudio
    Размер скачиваемого торрента: 3.28 GB (3517898752 Bytes)

    Капитан Немо (1977) DVDRip от New-Team
    загрузка...
    Рейтинг →
     (голосов: 1, оценка 5/5, голосовать можно 1 раз )

    Другие торренты по теме:

  • Капитан Немо (1-3 серии из 3) / 1975 / РУ / DVD-5


    • Комментарии (0):

      Информация

      Информация

        Посетители, находящиеся в группе Гости, не могут оставлять комментарии в данной новости.

        ↓ Меню



        ↓ Опрос

        А Вы добавили сайт в закладки?
        Да
        Не


        Top 10 за месяц (Фильмы)