.
Авторизация | Регистрация
Хочешь лучшие торренты? Добавь свой email!
Добавить
» » Дракула Брэма Стокера / Bram Stokers Dracula (1992) BDRip-AVC | Remastered | D, P, A скачать торрент бесплатно




    Дракула Брэма Стокера / Bram Stokers Dracula (1992) BDRip-AVC | Remastered | D, P, A скачать торрент бесплатно

    Опубликовал: Админ | Дата: 16-11-2015, 05:01 | Просмотров: 192


    Дракула Брэма Стокера/Bram Stoker;s Dracula
    Любовь бессмертна

    Создали в: 1992
    Категория жанра: ужасы, фэнтези, мелодрама
    Снималось в: США
    Главный режиссер: Френсис Форд Коппола

    Актеры
    Гари Олдман , Вайнона Райдер , Энтони Хопкинс , Киану Ривз , Ричард Э. Грант , Кэри Элвис , Билл Кэмпбелл , Сэди Фрост , Том Уэйтс , Моника Беллуччи , Микаэла Берку , Флорина Кендрик
    Перевод текста: Дублированный, Профессиональный многоголосый, Авторский (одноголосый)


    Сюжет фильма

    Конец XIX века, Лондон. Молодой юрист Джонатан Харкер и красавица девушка Мина любят друг друга. Джонатан на время вынужден оставить невесту одну и отправиться по делам в Трансильванию к графу Дракуле, желающему приобрести недвижимость в столице Англии. Но Джонатан не знает, кто такой Дракула на самом деле...

    Качество фильма видео: BDRip-AVC
    Информация о видео: MPEG-4 AVC/H.264, 2400 Kbps, 1024x554
    Информация о звуке 1: Русский AC3 4.0, 448 Kbps, 48.0 KHz (Дублированный) Blu-ray CEE
    Информация о звуке 2: Русский AC3 5.1, 384 Kbps, 48.0 KHz (Многоголосый закадровый) Superbit
    Информация о звуке 3: Русский AC3 5.1, 384 Kbps, 48.0 KHz (Многоголосый закадровый) Видеосервис
    Информация о звуке 4: Русский AC3 5.1, 384 Kbps, 48.0 KHz (Одноголосый закадровый) А. Михалев
    Информация о звуке 5: Русский AC3 5.1, 384 Kbps, 48.0 KHz (Одноголосый закадровый) Л. Володарский
    Информация о звуке 6: Русский AC3 5.1, 320 Kbps, 48.0 KHz (Одноголосый закадровый) В. Горчаков
    Информация о звуке 7: Русский AC3 5.1, 320 Kbps, 48.0 KHz (Одноголосый закадровый) Ю. Сербин
    Информация о звуке 8: Английский AC3 5.1, 448 Kbps, 48.0 KHz (Оригинал)
    MediaInfo

    Общее
    Полное имя : Дракула.mkv
    Формат : Matroska
    Версия формата : Version 1
    Размер файла : 4, 87 Гбайт
    Продолжительность : 2 ч. 7 м.
    Общий поток : 5476 Кбит/сек
    Дата кодирования : UTC 2015-11-13 18: 30: 47
    Программа кодирования : mkvmerge v2.4.1 (;Use Me;) built on Dec 5 2008 18: 30: 05
    Библиотека кодирования : libebml v0.7.7 + libmatroska v0.8.1
    Видео
    Идентификатор : 1
    Формат : AVC
    Формат/Информация : Advanced Video Codec
    Профиль формата : High@L4.1
    Параметр CABAC формата : Да
    Параметр ReFrames формата : 10 кадров
    Идентификатор кодека : V_MPEG4/ISO/AVC
    Продолжительность : 2 ч. 7 м.
    Битрейт : 2400 Кбит/сек
    Ширина : 1024 пикселя
    Высота : 554 пикселя
    Соотношение сторон : 1, 85: 1
    Режим частоты кадров : Постоянный
    Частота кадров : 23, 976 кадра/сек
    Цветовое пространство : YUV
    Субдискретизация насыщенности : 4: 2: 0
    Битовая глубина : 8 бит
    Тип развёртки : Прогрессивная
    Бит/(Пиксели*Кадры) : 0.176
    Размер потока : 2, 04 Гбайт (42%)
    Заголовок : Дракула (1992)
    Библиотека кодирования : x264 core 146 r2538 121396c
    Настройки программы : cabac=1/ref=10/deblock=1: -3: -3/analyse=0x3: 0x133/me=umh/subme=10/psy=1/psy_rd=1.00: 0.10/mixed_ref=1/me_range=48/chroma_me=1/trellis=2/8x8dct=1/cqm=0/deadzone=21, 11/fast_pskip=0/chroma_qp_offset=-3/threads=6/lookahead_threads=1/sliced_threads=0/nr=0/decimate=1/interlaced=0/bluray_compat=0/constrained_intra=0/bframes=5/b_pyramid=2/b_adapt=2/b_bias=0/direct=3/weightb=1/open_gop=0/weightp=2/keyint=230/keyint_min=22/scenecut=40/intra_refresh=0/rc_lookahead=40/rc=2pass/mbtree=1/bitrate=2400/ratetol=1.0/qcomp=0.60/qpmin=10/qpmax=51/qpstep=4/cplxblur=20.0/qblur=0.5/ip_ratio=1.40/aq=1: 1.00
    Язык : English
    Default : Да
    Forced : Нет
    Аудио #1
    Идентификатор : 2
    Формат : AC-3
    Формат/Информация : Audio Coding 3
    Расширение режима : CM (complete main)
    Параметр Endianness формата : Big
    Идентификатор кодека : A_AC3
    Продолжительность : 2 ч. 7 м.
    Вид битрейта : Постоянный
    Битрейт : 448 Кбит/сек
    Каналы : 4 канала
    Расположение каналов : Front: L C R, Back: C
    Частота : 48, 0 КГц
    Метод сжатия : С потерями
    Размер потока : 408 Мбайт (8%)
    Заголовок : AC3 (Дублированный) Blu-ray CEE
    Язык : Russian
    Default : Да
    Forced : Нет
    Аудио #2
    Идентификатор : 3
    Формат : AC-3
    Формат/Информация : Audio Coding 3
    Расширение режима : CM (complete main)
    Параметр Endianness формата : Big
    Идентификатор кодека : A_AC3
    Продолжительность : 2 ч. 7 м.
    Вид битрейта : Постоянный
    Битрейт : 384 Кбит/сек
    Каналы : 6 каналов
    Расположение каналов : Front: L C R, Side: L R, LFE
    Частота : 48, 0 КГц
    Метод сжатия : С потерями
    Задержка видео : 24 мс.
    Размер потока : 350 Мбайт (7%)
    Заголовок : AC3 (Многоголосый) Superbit
    Язык : Russian
    Default : Нет
    Forced : Нет
    Аудио #3
    Идентификатор : 4
    Формат : AC-3
    Формат/Информация : Audio Coding 3
    Расширение режима : CM (complete main)
    Параметр Endianness формата : Big
    Идентификатор кодека : A_AC3
    Продолжительность : 2 ч. 7 м.
    Вид битрейта : Постоянный
    Битрейт : 384 Кбит/сек
    Каналы : 6 каналов
    Расположение каналов : Front: L C R, Side: L R, LFE
    Частота : 48, 0 КГц
    Метод сжатия : С потерями
    Задержка видео : 24 мс.
    Размер потока : 350 Мбайт (7%)
    Заголовок : AC3 (Многоголосый) Видеосервис
    Язык : Russian
    Default : Нет
    Forced : Нет
    Аудио #4
    Идентификатор : 5
    Формат : AC-3
    Формат/Информация : Audio Coding 3
    Расширение режима : CM (complete main)
    Параметр Endianness формата : Big
    Идентификатор кодека : A_AC3
    Продолжительность : 2 ч. 7 м.
    Вид битрейта : Постоянный
    Битрейт : 384 Кбит/сек
    Каналы : 6 каналов
    Расположение каналов : Front: L C R, Side: L R, LFE
    Частота : 48, 0 КГц
    Метод сжатия : С потерями
    Задержка видео : 24 мс.
    Размер потока : 350 Мбайт (7%)
    Заголовок : AC3 (Одноголосый) А. Михалев
    Язык : Russian
    Default : Нет
    Forced : Нет
    Аудио #5
    Идентификатор : 6
    Формат : AC-3
    Формат/Информация : Audio Coding 3
    Расширение режима : CM (complete main)
    Параметр Endianness формата : Big
    Идентификатор кодека : A_AC3
    Продолжительность : 2 ч. 7 м.
    Вид битрейта : Постоянный
    Битрейт : 384 Кбит/сек
    Каналы : 6 каналов
    Расположение каналов : Front: L C R, Side: L R, LFE
    Частота : 48, 0 КГц
    Метод сжатия : С потерями
    Задержка видео : 24 мс.
    Размер потока : 350 Мбайт (7%)
    Заголовок : AC3 (Одноголосый) Л. Володарский
    Язык : Russian
    Default : Нет
    Forced : Нет
    Аудио #6
    Идентификатор : 7
    Формат : AC-3
    Формат/Информация : Audio Coding 3
    Расширение режима : CM (complete main)
    Параметр Endianness формата : Big
    Идентификатор кодека : A_AC3
    Продолжительность : 2 ч. 7 м.
    Вид битрейта : Постоянный
    Битрейт : 320 Кбит/сек
    Каналы : 6 каналов
    Расположение каналов : Front: L C R, Side: L R, LFE
    Частота : 48, 0 КГц
    Метод сжатия : С потерями
    Задержка видео : 24 мс.
    Размер потока : 292 Мбайт (6%)
    Заголовок : AC3 (Одноголосый) В. Горчаков
    Язык : Russian
    Default : Нет
    Forced : Нет
    Аудио #7
    Идентификатор : 8
    Формат : AC-3
    Формат/Информация : Audio Coding 3
    Расширение режима : CM (complete main)
    Параметр Endianness формата : Big
    Идентификатор кодека : A_AC3
    Продолжительность : 2 ч. 7 м.
    Вид битрейта : Постоянный
    Битрейт : 320 Кбит/сек
    Каналы : 6 каналов
    Расположение каналов : Front: L C R, Side: L R, LFE
    Частота : 48, 0 КГц
    Метод сжатия : С потерями
    Задержка видео : 24 мс.
    Размер потока : 292 Мбайт (6%)
    Заголовок : AC3 (Одноголосый) Ю. Сербин
    Язык : Russian
    Default : Нет
    Forced : Нет
    Аудио #8
    Идентификатор : 9
    Формат : AC-3
    Формат/Информация : Audio Coding 3
    Расширение режима : CM (complete main)
    Параметр Endianness формата : Big
    Идентификатор кодека : A_AC3
    Продолжительность : 2 ч. 7 м.
    Вид битрейта : Постоянный
    Битрейт : 448 Кбит/сек
    Каналы : 6 каналов
    Расположение каналов : Front: L C R, Side: L R, LFE
    Частота : 48, 0 КГц
    Метод сжатия : С потерями
    Размер потока : 408 Мбайт (8%)
    Заголовок : AC3 (Оригинал)
    Язык : English
    Default : Нет
    Forced : Нет
    Текст #1
    Идентификатор : 10
    Формат : UTF-8
    Идентификатор кодека : S_TEXT/UTF8
    Идентификатор кодека/Информация : UTF-8 Plain Text
    Заголовок : Русские (Форсированные)
    Язык : Russian
    Default : Да
    Forced : Нет
    Текст #2
    Идентификатор : 11
    Формат : UTF-8
    Идентификатор кодека : S_TEXT/UTF8
    Идентификатор кодека/Информация : UTF-8 Plain Text
    Заголовок : Русские
    Язык : Russian
    Default : Нет
    Forced : Нет
    Текст #3
    Идентификатор : 12
    Формат : UTF-8
    Идентификатор кодека : S_TEXT/UTF8
    Идентификатор кодека/Информация : UTF-8 Plain Text
    Заголовок : Английские
    Язык : English
    Default : Нет
    Forced : Нет/code

    Скриншоты:


    Онлайн видео Дракула Брэма Стокера


    Размер скачиваемого торрента: 4.87 GB (5231494263 Bytes)

    Дракула Брэма Стокера/Bram Stokers Dracula (1992) BDRip-AVC | Remastered | D, P, A
    загрузка...
    Рейтинг →
     (голосов: 1, оценка 4/5, голосовать можно 1 раз )

    Другие торренты по теме:

  • Дракула / Дракула Брэма Стокера / Bram Stokers Dracula (1992) HDRip от Scarabey | D
  • Дракула Брэма Стокера / Bram Stokers Dracula (1992) HDRip | D
  • Дракула Брэма Стокера / Bram Stokers Dracula (1992) BDRip 1080p
  • Дракула Брэма Стокера / Bram Stokers Dracula (1992) BDRip 720p от Leonardo and Scarabey | Лицензия скачать через торрент бесплатно
  • Дракула Брэма Стокера / Bram Stokers Dracula (1992) BDRip 720p от MediaClub | D, P, A скачать через торрент бесплатно
  • Дракула Брэма Стокера / Bram Stokers Dracula (1992) BDRip-AVC от MediaClub | D, P, A
  • Дракула Брэма Стокера / Bram Stoker's Dracula (4K Remastered) / 1992 / ДБ, СТ / Blu-Ray CEE (1080p)
  • Дракула Брэма Стокера / Bram Stoker's Dracula (4K Remastered) / 1992 / 2 x ДБ, 2 х ПМ, 6 x АП, СТ / Blu-Ray Remux (1080p)


    • Комментарии (0):

      Информация

      Информация

        Посетители, находящиеся в группе Гости, не могут оставлять комментарии в данной новости.

        ↓ Меню



        ↓ Опрос

        А Вы добавили сайт в закладки?
        Да
        Не


        Top 10 за месяц (Фильмы)