.
Авторизация | Регистрация
Хочешь лучшие торренты? Добавь свой email!
Добавить
» » Железная маска / Le masque de fer (1962) DVDRip от Youtracker скачать торрент бесплатно




    Железная маска / Le masque de fer (1962) DVDRip от Youtracker скачать торрент бесплатно

    Опубликовал: Админ | Дата: 27-02-2015, 11:09 | Просмотров: 454


    Год выпуска: 1962
    Страна: Италия, Франция
    Производство: Ceres Films, Films Marly, Fucha Productions, Societe Nouvelle des Etablissements Gaumont (SNEG)
    Жанр: приключения
    Продолжительность: 02:07:52

    Перевод: Профессиональный (полное дублирование) Союзмультфильм
    Перевод: Профессиональный (многоголосый, закадровый) ТВЦ
    Перевод: Профессиональный (многоголосый, закадровый) Светла
    Субтитры: нет
    Оригинальная аудиодорожка: нет

    Режиссер: Анри Декуэн / Henri Decoin

    В ролях: Жан Маре (Charles d;Artagnan), Сильва Кошина (Marion), Жан-Франсуа Порон (Henri / Louis XIV), Жизель Паскаль (Mme de Chaulmes), Филипп Лемэр (De Vaudreuil), Ноэль Роквер (M. de Saint-Mars), Жан Рошфор (Lastreaumont), Клодин Оже (Isabelle de Saint-Mars), Жермен Монтеро (Ann d;Autriche), Энрико Мария Салерно (Mazarin), Жан Дави (Marchal of Turenne), Раймон Жером (Pimentel)...

    Роли дублировали: Алексей Консовский (Charles d;Artagnan), Виктория Чаева (Marion), Виктор Рождественский (Henri / Louis XIV), Вера Васильева (Mme de Chaulmes), Николай Александрович (De Vaudreuil), Сергей Цейц (M. de Saint-Mars), Артем Карапетян (Lastreaumont), Нина Крачковская (Isabelle de Saint-Mars), Нина Никитина (Ann d;Autriche), Алексей Алексеев (Mazarin), Феликс Яворский (Renaud de Lourmes)...

    Описание: В крепости на далеком острове где-то в Средиземном море томится анонимный пленник. Под страхом смертной казни никто не смеет видеть узника без маски, скрывающей его лицо. А на другом конце воюющей Европы, в Париже, сильнейшая лихорадка привела на грань жизни и смерти Его Величество Людовика XIV, молодого короля Франции.
    Под угрозой подписание мирного договора с Испанией, главным условием которого должен стать союз Людовика XIV и Инфанты Испанской. Не будет короля — не будет выгодной свадьбы и долгожданного мира.
    В этот драматический момент интриган и умница кардинал Мазарини поручает капитану ДАртаньяну весьма щекотливое дело — доставить в Париж живым и невредимым таинственного пленника — брата-близнеца короля. Задание опасное и непростое, но капитан королевских мушкетеров азартен, отважен и молод душой…




    Исходник: BD-Remux
    Тип релиза: BDRip
    Контейнер: AVI

    Видео: 688x288 (2,40:1), 25 fps, XviD ~ 679 kbps avg, 0.143 bit/pixel
    Аудио: 48 kHz, Dolby AC3 2.0, 192 kbps

    Раздача от:
    MediaInfo

    Общее
    Полное имя : Zheleznaja.maska.1962.BDRip-745_Youtracker_by_AVP Studio.avi
    Формат : AVI
    Формат/Информация : Audio Video Interleave
    Размер файла : 747 Мбайт
    Продолжительность : 2 ч. 7 м.
    Общий поток : 817 Кбит/сек
    Программа кодирования : VirtualDubMod 1.5.10.3 | www.virtualdub-fr.org || (build 2550/release)
    Библиотека кодирования : VirtualDubMod build 2550/release

    Видео
    Идентификатор : 0
    Формат : MPEG-4 Visual
    Профиль формата : Advanced Simple@L5
    Параметр BVOP формата : 1
    Параметр QPel формата : Нет
    Параметр GMC формата : Без точки перехода
    Параметр матрицы формата : Выборочная
    Идентификатор кодека : XVID
    Идентификатор кодека/Подсказка : XviD
    Продолжительность : 2 ч. 7 м.
    Битрейт : 679 Кбит/сек
    Ширина : 688 пикселей
    Высота : 288 пикселей
    Соотношение сторон : 2,40:1
    Частота кадров : 24,000 кадра/сек
    Цветовое пространство : YUV
    Субдискретизация насыщенности : 4:2:0
    Битовая глубина : 8 бит
    Тип развёртки : Прогрессивная
    Метод сжатия : С потерями
    Бит/(Пиксели*Кадры) : 0.143
    Размер потока : 621 Мбайт (83%)
    Библиотека кодирования : XviD 65

    Аудио
    Идентификатор : 1
    Формат : MPEG Audio
    Версия формата : Version 1
    Профиль формата : Layer 3
    Идентификатор кодека : 55
    Идентификатор кодека/Подсказка : MP3
    Продолжительность : 2 ч. 7 м.
    Вид битрейта : Постоянный
    Битрейт : 128 Кбит/сек
    Каналы : 2 канала
    Частота : 48,0 КГц
    Метод сжатия : С потерями
    Размер потока : 117 Мбайт (16%)
    Выравнивание : Соединение по промежуткам
    Продолжительность промежутка : 42 мс. (1,00 видеокадр)
    Время предзагрузки промежутка : 504 мс.
    Библиотека кодирования : L3.99r
    Залил: AVPStudio
    Размер: 746.78 MB (783052800 Bytes)
    загрузка...
    Рейтинг →
     (голосов: 1, оценка 4/5, голосовать можно 1 раз )

    Другие торренты по теме:

  • Железная маска / Le masque de fer / The Iron Mask (1962) BDRip-AVC от MediaClub | D, P скачать через торрент бесплатно


    • Комментарии (0):

      Информация

      Информация

        Посетители, находящиеся в группе Гости, не могут оставлять комментарии в данной новости.

        ↓ Меню



        ↓ Опрос

        А Вы добавили сайт в закладки?
        Да
        Не


        Top 10 за месяц (Фильмы)