.
Авторизация | Регистрация
Хочешь лучшие торренты? Добавь свой email!
Добавить
» » Джанни Родари - Приключение Чиполлино (1962) (2008) WAVPack скачать торрент бесплатно




    Джанни Родари - Приключение Чиполлино (1962) (2008) WAVPack скачать торрент бесплатно

    Опубликовал: Админ | Дата: 27-02-2015, 11:09 | Просмотров: 493



    Жанр: Сказка
    Год выпуска: 2008 г.
    Год записи: 1962 г.
    Издательство: Мелодия
    Серия: Мелодия - детям
    Номер по каталогу: MEL CD 50 01442
    Релиз: ley-barmaley
    Аудио кодек: WAVPack
    Тип рипа: image .cue .log
    Битрейт: lossless
    Тип : Аудиоспектакль
    Общее время звучания: 00:35:42
    Наличие сканов в содержимом раздачи: есть

    Аннотация:
    Мелодия продолжает реставрировать знаменитые и любимые многими слушателями записи, выходившие на пластинках в 60-80-е годы XX века.
    Меняется время, меняется государство, его устройство. Но люди - не меняются. И как во все времена и при любых правителях есть честность, преданность, щедрость, доброта, так всегда, к сожалению, будут идти с ними рядом жадность, предательство, подлость и трусость.
    Время окрашивает произведения искусства в свои оттенки. И то, что вчера было важным и актуальным, сегодня нам кажется порой нелепым и смешным. Но помнить свою историю нужно. И важно открывать новому поколению суть вещей, учить чувствовать ее сквозь то наносное, что пройдет.

    Инсценировка З.Потаповой и С.Богомазова
    Музыка Н.Пейко

    Действующие лица и исполнители:
    Чиполлино - М. Куприянова
    Помидор - М. Названов
    Тыква - Э. Гарин
    Мастер Виноградина - В. Кольцов
    Принц Лимон, Мастино - О. Абдулов
    Чиполлоне - Л. Пирогов
    Паук - А. Кубацкий
    Груша - М. Абрамов
    Графиня Вишня - А. Георгиевская
    Редиска - Н. Львова
    Земляничка - В. Орлова
    Вишенка - И. Потоцкая
    От автора - А. Консовский

    Оркестр п/у В. Ширинского

    EAC log

    Exact Audio Copy V0.99 prebeta 5 from 4. May 2009

    Отчёт EAC об извлечении, выполненном 19. декабря 2010, 0:27

    Various / Приключения Чиполлино (Мелодия, MEL CD 50 01442, Rip by ley-barmaley)

    Дисковод: Optiarc DVD RW AD-7173A Adapter: 0 ID: 0

    Режим чтения : Достоверность
    Использование точного потока : Да
    Отключение кэша аудио : Да
    Использование указателей C2 : Нет

    Коррекция смещения при чтении : 48
    Способность читать области Lead-in и Lead-out : Нет
    Заполнение пропущенных сэмплов тишиной : Да
    Удаление блоков с тишиной в начале и конце : Нет
    При вычислениях CRC использовались нулевые сэмплы : Да
    Интерфейс : Встроенный Win32-интерфейс для Win NT/2000

    Выходной формат : Внутренние WAV-операции
    Формат сэмплов : 44.100 Гц; 16 бит; стерео

    TOC извлечённого CD

    Трек | Старт | Длительность | Начальный сектор | Конечный сектор
    ---------------------------------------------------------------------
    1 | 0:00.00 | 10:04.57 | 0 | 45356
    2 | 10:04.57 | 7:24.72 | 45357 | 78728
    3 | 17:29.54 | 9:51.22 | 78729 | 123075
    4 | 27:21.01 | 8:21.33 | 123076 | 160683

    Характеристики диапазона извлечения и сообщения об ошибках

    Выбранный диапазон

    Имя файла G:ley-barmaleylossless-galaxy.ruПриключения Чиполлино (Мелодия, MEL CD 50 01442, Rip by ley-barmaley).wav

    Пиковый уровень 100.0 %
    Качество диапазона 99.9 %
    CRC теста 710D69CB
    CRC копии 710D69CB
    Копирование... OK

    Ошибок не произошло

    AccurateRip: сводка

    Трек 1 нет в базе данных
    Трек 2 нет в базе данных
    Трек 3 нет в базе данных
    Трек 4 нет в базе данных

    Ни одного трека нет в базе AccurateRip

    Конец отчёта


    auCDtect


    -----------------------

    DON;T MODIFY THIS FILE

    -----------------------

    PERFORMER: auCDtect Task Manager, ver. 1.5.1RC3 build 1.5.1.4
    Copyright (c) 2008-2010 y-soft. All rights reserved
    http://y-soft.org

    ANALYZER: auCDtect: CD records authenticity detector, version 0.8.2
    Copyright (c) 2004 Oleg Berngardt. All rights reserved.
    Copyright (c) 2004 Alexander Djourik. All rights reserved.

    FILE: Приключения Чиполлино (Мелодия, MEL CD 50 01442, Rip by ley-barmaley).wv
    Size: 187768148 Hash: 0054D0E759F09CDEC9EEA11716C17432 Accuracy: -m0
    Conclusion: CDDA 100%
    Signature: CAFB3CBB687445BC016D5ED4AFF3DCF1F68255BE
    FILE: Приключения Чиполлино (Мелодия, MEL CD 50 01442, Rip by ley-barmaley).wav
    Size: 377928812 Hash: 0054D0E759F09CDEC9EEA11716C17432 Accuracy: -m0
    Conclusion: CDDA 100%
    Signature: 1AD3A0C28858CA5A80E1CF05C5F2E0A01E8401CC




    Содержание индексной карты (.CUE)

    REM GENRE Инсценировка
    REM DATE 2008
    REM DISCID 23085E04
    REM COMMENT ExactAudioCopy v0.99pb5
    PERFORMER Various
    TITLE Приключения Чиполлино (Мелодия, MEL CD 50 01442)
    FILE Приключения Чиполлино (Мелодия, MEL CD 50 01442, Rip by ley-barmaley).wv WAVE
    TRACK 01 AUDIO
    TITLE Приключения Чиполлино, часть 1
    PERFORMER Эраст Гарин, Михаил Названов, Олег Абдулов и другие
    FLAGS DCP
    INDEX 01 00:00:00
    TRACK 02 AUDIO
    TITLE Приключения Чиполлино, часть 2
    PERFORMER Эраст Гарин, Михаил Названов, Олег Абдулов и другие
    FLAGS DCP
    INDEX 01 10:04:57
    TRACK 03 AUDIO
    TITLE Приключения Чиполлино, часть 3
    PERFORMER Эраст Гарин, Михаил Названов, Олег Абдулов и другие
    FLAGS DCP
    INDEX 01 17:29:54
    TRACK 04 AUDIO
    TITLE Приключения Чиполлино, часть 4
    PERFORMER Эраст Гарин, Михаил Названов, Олег Абдулов и другие
    FLAGS DCP
    INDEX 01 27:21:01

    Залил: geka9999
    Размер: 185.25 MB (194244962 Bytes)
    загрузка...
    Рейтинг →
     (голосов: 1, оценка 5/5, голосовать можно 1 раз )

    Другие торренты по теме:

  • Gianni Morandi - Поёт Джанни Моранди
  • Как Джанни попал в ад (1956) SATRip-AVC от New-Team


    • Комментарии (0):

      Информация

      Информация

        Посетители, находящиеся в группе Гости, не могут оставлять комментарии в данной новости.

        ↓ Меню



        ↓ Опрос

        А Вы добавили сайт в закладки?
        Да
        Не


        Top 10 за месяц (Книги)